<?xml version="1.0" standalone="no"?>
<!DOCTYPE svg PUBLIC "-//W3C//DTD SVG 1.1//EN" "http://www.w3.org/Graphics/SVG/1.1/DTD/svg11.dtd" >
<svg xmlns="http://www.w3.org/2000/svg">
<metadata>Generated by IcoMoon</metadata>
<defs>
<font id="icomoon" horiz-adv-x="1024">
<font-face units-per-em="1024" ascent="960" descent="-64" />
<missing-glyph horiz-adv-x="1024" />
<glyph unicode="&#x20;" horiz-adv-x="512" d="" />
<glyph unicode="&#xe900;" glyph-name="chevron-filled-down" d="M512 917.333c-260.267 0-469.333-209.067-469.333-469.333s209.067-469.333 469.333-469.333 469.333 209.067 469.333 469.333-209.067 469.333-469.333 469.333zM712.533 503.467l-200.533-200.533-200.533 200.533c-8.533 8.533-8.533 25.6 0 38.4s25.6 8.533 38.4 0l162.133-162.133 162.133 162.133c8.533 8.533 25.6 8.533 38.4 0s12.8-25.6 0-38.4z" />
<glyph unicode="&#xe901;" glyph-name="chevron-filled-left" d="M981.333 448c0 260.267-209.067 469.333-469.333 469.333s-469.333-209.067-469.333-469.333 209.067-469.333 469.333-469.333 469.333 209.067 469.333 469.333zM567.467 247.467l-200.533 200.533 200.533 200.533c8.533 8.533 25.6 8.533 38.4 0s8.533-25.6 0-38.4l-162.133-162.133 162.133-162.133c8.533-8.533 8.533-25.6 0-38.4s-25.6-12.8-38.4 0z" />
<glyph unicode="&#xe902;" glyph-name="chevron-filled-right" d="M42.667 448c0 260.267 209.067 469.333 469.333 469.333s469.333-209.067 469.333-469.333-209.067-469.333-469.333-469.333-469.333 209.067-469.333 469.333zM456.533 247.467l200.533 200.533-200.533 200.533c-8.533 8.533-25.6 8.533-38.4 0s-8.533-25.6 0-38.4l162.133-162.133-162.133-162.133c-8.533-8.533-8.533-25.6 0-38.4s25.6-12.8 38.4 0z" />
<glyph unicode="&#xe903;" glyph-name="chevron-filled-up" d="M512-21.333c-260.267 0-469.333 209.067-469.333 469.333s209.067 469.333 469.333 469.333 469.333-209.067 469.333-469.333-209.067-469.333-469.333-469.333zM712.533 392.533l-200.533 200.533-200.533-200.533c-8.533-8.533-8.533-25.6 0-38.4s25.6-8.533 38.4 0l162.133 162.133 162.133-162.133c8.533-8.533 25.6-8.533 38.4 0s12.8 25.6 0 38.4z" />
<glyph unicode="&#xe904;" glyph-name="alert-triangle" d="M977.067 209.067l-358.4 601.6c-34.133 59.733-110.933 76.8-166.4 42.667-17.067-8.533-29.867-25.6-42.667-42.667 0 0 0 0 0 0l-362.667-601.6c-34.133-59.733-12.8-132.267 46.933-166.4 17.067-8.533 38.4-17.067 59.733-17.067h721.067c34.133 0 64 12.8 85.333 38.4s34.133 55.467 34.133 85.333c0 21.333-4.267 42.667-17.067 59.733zM908.8 115.2c-8.533-8.533-21.333-12.8-34.133-12.8h-725.333c-8.533 0-17.067 4.267-21.333 8.533-21.333 12.8-29.867 42.667-17.067 64l358.4 597.333c4.267 8.533 8.533 12.8 17.067 17.067 21.333 12.8 51.2 8.533 64-17.067l362.667-601.6c4.267-8.533 4.267-17.067 8.533-25.6 0-8.533-4.267-21.333-12.8-29.867zM512 366.933c21.333 0 38.4 17.067 38.4 38.4v170.667c0 21.333-17.067 38.4-38.4 38.4s-38.4-17.067-38.4-38.4v-170.667c0-21.333 17.067-38.4 38.4-38.4zM512 273.067v0c-25.6 0-42.667-17.067-42.667-42.667s21.333-42.667 42.667-42.667 42.667 17.067 42.667 42.667-17.067 42.667-42.667 42.667z" />
<glyph unicode="&#xe905;" glyph-name="arrow-down" d="M836.267 473.6c-12.8 12.8-38.4 12.8-51.2 0l-234.667-234.667v507.733c0 21.333-17.067 38.4-38.4 38.4s-38.4-17.067-38.4-38.4v-507.733l-234.667 234.667c-12.8 12.8-38.4 12.8-51.2 0s-12.8-38.4 0-51.2l298.667-298.667c0 0 0 0 0 0 4.267-4.267 8.533-4.267 12.8-8.533 4.267 0 8.533-4.267 12.8-4.267s8.533 0 12.8 4.267c4.267 0 8.533 4.267 12.8 8.533 0 0 0 0 0 0l298.667 298.667c17.067 12.8 17.067 38.4 0 51.2z" />
<glyph unicode="&#xe906;" glyph-name="arrow-down-circle" d="M512 913.067c-256 0-465.067-209.067-465.067-465.067s209.067-465.067 465.067-465.067c256 0 465.067 209.067 465.067 465.067s-209.067 465.067-465.067 465.067zM512 59.733c-213.333 0-388.267 174.933-388.267 388.267s174.933 388.267 388.267 388.267c213.333 0 388.267-174.933 388.267-388.267s-174.933-388.267-388.267-388.267zM657.067 473.6l-106.667-106.667v251.733c0 21.333-17.067 38.4-38.4 38.4s-38.4-17.067-38.4-38.4v-251.733l-106.667 106.667c-12.8 12.8-38.4 12.8-51.2 0s-12.8-38.4 0-51.2l170.667-170.667c0 0 0 0 0 0 4.267-4.267 8.533-4.267 12.8-8.533 4.267 0 8.533-4.267 12.8-4.267s8.533 0 12.8 4.267c4.267 0 8.533 4.267 12.8 8.533 0 0 0 0 0 0l170.667 170.667c12.8 12.8 12.8 38.4 0 51.2-12.8 17.067-38.4 17.067-51.2 0z" />
<glyph unicode="&#xe907;" glyph-name="arrow-left" d="M810.667 486.4h-507.733l234.667 234.667c12.8 12.8 12.8 38.4 0 51.2s-38.4 12.8-51.2 0l-298.667-298.667c-4.267-4.267-4.267-8.533-8.533-12.8-4.267-8.533-4.267-21.333 0-29.867 0-4.267 4.267-8.533 8.533-12.8l298.667-298.667c8.533-8.533 17.067-12.8 25.6-12.8s17.067 4.267 25.6 12.8c12.8 12.8 12.8 38.4 0 51.2l-234.667 234.667h507.733c21.333 0 38.4 17.067 38.4 38.4s-17.067 42.667-38.4 42.667z" />
<glyph unicode="&#xe908;" glyph-name="arrow-left-circle" d="M512 913.067c-256 0-465.067-209.067-465.067-465.067s209.067-465.067 465.067-465.067c256 0 465.067 209.067 465.067 465.067s-209.067 465.067-465.067 465.067zM512 59.733c-213.333 0-388.267 174.933-388.267 388.267s174.933 388.267 388.267 388.267c213.333 0 388.267-174.933 388.267-388.267s-174.933-388.267-388.267-388.267zM682.667 486.4h-251.733l106.667 106.667c12.8 12.8 12.8 38.4 0 51.2s-38.4 12.8-51.2 0l-170.667-170.667c-4.267-4.267-4.267-8.533-8.533-12.8-4.267-8.533-4.267-21.333 0-29.867 0-4.267 4.267-8.533 8.533-12.8l170.667-170.667c8.533-8.533 17.067-12.8 25.6-12.8s17.067 4.267 25.6 12.8c12.8 12.8 12.8 38.4 0 51.2l-106.667 106.667h251.733c21.333 0 38.4 17.067 38.4 38.4s-17.067 42.667-38.4 42.667z" />
<glyph unicode="&#xe909;" glyph-name="arrow-right" d="M844.8 435.2c0 4.267 4.267 8.533 4.267 12.8 0 0 0 0 0 0s0 0 0 0c0 4.267 0 8.533-4.267 12.8 0 4.267-4.267 8.533-8.533 12.8 0 0 0 0 0 0l-298.667 298.667c-12.8 12.8-38.4 12.8-51.2 0s-12.8-38.4 0-51.2l234.667-234.667h-507.733c-21.333 0-38.4-17.067-38.4-38.4s17.067-38.4 38.4-38.4h507.733l-234.667-234.667c-12.8-12.8-12.8-38.4 0-51.2 8.533-8.533 17.067-12.8 25.6-12.8s17.067 4.267 25.6 12.8l298.667 298.667c0 0 0 0 0 0 4.267 4.267 8.533 8.533 8.533 12.8z" />
<glyph unicode="&#xe90a;" glyph-name="arrow-right-circle" d="M512 913.067c-256 0-465.067-209.067-465.067-465.067s209.067-465.067 465.067-465.067c256 0 465.067 209.067 465.067 465.067s-209.067 465.067-465.067 465.067zM512 59.733c-213.333 0-388.267 174.933-388.267 388.267s174.933 388.267 388.267 388.267c213.333 0 388.267-174.933 388.267-388.267s-174.933-388.267-388.267-388.267zM721.067 448c0 0 0 0 0 0s0 0 0 0c0 8.533 0 12.8-4.267 17.067 0 4.267-4.267 8.533-8.533 12.8 0 0 0 0 0 0l-170.667 170.667c-12.8 12.8-38.4 12.8-51.2 0s-12.8-38.4 0-51.2l106.667-106.667h-251.733c-21.333 0-38.4-17.067-38.4-38.4s17.067-38.4 38.4-38.4h251.733l-106.667-106.667c-12.8-12.8-12.8-38.4 0-51.2 8.533-8.533 17.067-12.8 25.6-12.8s17.067 4.267 25.6 12.8l170.667 170.667c0 0 0 0 0 0 4.267 4.267 4.267 8.533 8.533 12.8 0 0 4.267 4.267 4.267 8.533z" />
<glyph unicode="&#xe90b;" glyph-name="arrow-up" d="M836.267 473.6l-298.667 298.667c-4.267 4.267-8.533 4.267-12.8 8.533-8.533 4.267-21.333 4.267-29.867 0-4.267 0-8.533-4.267-12.8-8.533l-298.667-298.667c-12.8-12.8-12.8-38.4 0-51.2s38.4-12.8 51.2 0l234.667 234.667v-507.733c0-21.333 17.067-38.4 38.4-38.4s38.4 17.067 38.4 38.4v507.733l234.667-234.667c8.533-8.533 17.067-12.8 25.6-12.8s17.067 4.267 25.6 12.8c21.333 12.8 21.333 38.4 4.267 51.2z" />
<glyph unicode="&#xe90c;" glyph-name="arrow-up-circle" d="M512 913.067c-256 0-465.067-209.067-465.067-465.067s209.067-465.067 465.067-465.067c256 0 465.067 209.067 465.067 465.067s-209.067 465.067-465.067 465.067zM512 59.733c-213.333 0-388.267 174.933-388.267 388.267s174.933 388.267 388.267 388.267c213.333 0 388.267-174.933 388.267-388.267s-174.933-388.267-388.267-388.267zM537.6 644.267c-4.267 4.267-8.533 4.267-12.8 8.533-8.533 4.267-21.333 4.267-29.867 0-4.267 0-8.533-4.267-12.8-8.533l-170.667-170.667c-12.8-12.8-12.8-38.4 0-51.2s38.4-12.8 51.2 0l106.667 106.667v-251.733c0-21.333 17.067-38.4 38.4-38.4s38.4 17.067 38.4 38.4v251.733l106.667-106.667c8.533-8.533 17.067-12.8 25.6-12.8s17.067 4.267 25.6 12.8c12.8 12.8 12.8 38.4 0 51.2l-166.4 170.667z" />
<glyph unicode="&#xe90d;" glyph-name="at-sign" d="M512 913.067c-123.733 0-238.933-46.933-328.533-136.533-85.333-89.6-136.533-204.8-136.533-328.533 0-256 209.067-465.067 465.067-465.067 102.4 0 200.533 34.133 281.6 93.867 17.067 12.8 21.333 34.133 8.533 51.2s-34.133 21.333-51.2 8.533c-68.267-51.2-153.6-76.8-238.933-76.8-213.333 0-388.267 174.933-388.267 388.267s174.933 388.267 388.267 388.267c213.333 0 388.267-174.933 388.267-388.267v-42.667c0-51.2-42.667-89.6-89.6-89.6s-89.6 42.667-89.6 89.6v213.333c0 21.333-17.067 38.4-38.4 38.4s-38.4-17.067-38.4-38.4v-12.8c-34.133 29.867-81.067 51.2-132.267 51.2-115.2 0-209.067-93.867-209.067-209.067s93.867-209.067 209.067-209.067c64 0 119.467 29.867 157.867 76.8 29.867-46.933 81.067-76.8 140.8-76.8 89.6 0 166.4 72.533 166.4 166.4v42.667c0 256-209.067 465.067-465.067 465.067zM512 315.733c-72.533 0-132.267 59.733-132.267 132.267s59.733 132.267 132.267 132.267c72.533 0 132.267-59.733 132.267-132.267s-59.733-132.267-132.267-132.267z" />
<glyph unicode="&#xe90e;" glyph-name="award" d="M725.333 358.4c76.8 59.733 123.733 153.6 123.733 260.267 0 183.467-149.333 337.067-337.067 337.067-183.467 0-337.067-153.6-337.067-337.067 0-106.667 46.933-196.267 123.733-260.267l-119.467-366.933c-4.267-12.8 0-29.867 8.533-38.4s17.067-8.533 25.6-8.533c4.267 0 8.533 0 12.8 4.267l285.867 115.2 285.867-123.733c12.8-4.267 29.867-4.267 38.4 8.533 12.8 8.533 12.8 25.6 8.533 38.4l-119.467 371.2zM251.733 618.667c0 145.067 115.2 260.267 260.267 260.267s260.267-115.2 260.267-260.267-115.2-260.267-260.267-260.267c-145.067 0-260.267 115.2-260.267 260.267zM524.8 140.8c-8.533 4.267-21.333 4.267-29.867 0l-221.867-93.867 89.6 273.067c42.667-21.333 93.867-34.133 149.333-34.133 51.2 0 102.4 12.8 149.333 34.133l89.6-273.067-226.133 93.867z" />
<glyph unicode="&#xe90f;" glyph-name="bell" d="M917.333 264.533c0 0-110.933 81.067-110.933 354.133 0 162.133-132.267 294.4-294.4 294.4s-294.4-132.267-294.4-294.4c0-268.8-110.933-354.133-110.933-354.133-12.8-8.533-21.333-25.6-17.067-42.667s21.333-25.6 34.133-25.6h768c17.067 0 29.867 12.8 34.133 25.6 8.533 17.067 4.267 34.133-8.533 42.667zM209.067 273.067c38.4 59.733 85.333 170.667 85.333 345.6 0 119.467 98.133 217.6 217.6 217.6s217.6-98.133 217.6-217.6c0-179.2 42.667-285.867 85.333-345.6h-605.867zM605.867 98.133c-17.067 8.533-42.667 4.267-51.2-12.8-12.8-21.333-42.667-29.867-64-17.067-8.533 4.267-12.8 8.533-17.067 17.067-8.533 17.067-34.133 25.6-51.2 12.8-17.067-8.533-25.6-34.133-12.8-51.2s25.6-34.133 42.667-42.667c21.333-12.8 38.4-17.067 59.733-17.067 42.667 0 85.333 21.333 106.667 59.733 8.533 17.067 4.267 38.4-12.8 51.2z" />
<glyph unicode="&#xe910;" glyph-name="bookmark" d="M725.333 870.4h-426.667c-68.267 0-123.733-55.467-123.733-123.733v-682.667c0-12.8 8.533-25.6 21.333-34.133 12.8-4.267 25.6-4.267 38.4 4.267l277.333 196.267 277.333-196.267c8.533-4.267 12.8-8.533 21.333-8.533 4.267 0 12.8 0 17.067 4.267 12.8 8.533 21.333 21.333 21.333 34.133v682.667c0 68.267-55.467 123.733-123.733 123.733zM772.267 136.533l-238.933 170.667c-8.533 4.267-12.8 8.533-21.333 8.533s-17.067-4.267-21.333-8.533l-238.933-170.667v610.133c0 25.6 21.333 46.933 46.933 46.933h426.667c25.6 0 46.933-21.333 46.933-46.933v-610.133z" />
<glyph unicode="&#xe911;" glyph-name="calendar" d="M810.667 827.733h-89.6v46.933c0 21.333-17.067 38.4-38.4 38.4s-38.4-17.067-38.4-38.4v-46.933h-264.533v46.933c0 21.333-17.067 38.4-38.4 38.4s-38.4-17.067-38.4-38.4v-46.933h-89.6c-68.267 0-123.733-55.467-123.733-123.733v-597.333c0-68.267 55.467-123.733 123.733-123.733h597.333c68.267 0 123.733 55.467 123.733 123.733v597.333c0 68.267-55.467 123.733-123.733 123.733zM213.333 750.933h89.6v-46.933c0-21.333 17.067-38.4 38.4-38.4s38.4 17.067 38.4 38.4v46.933h268.8v-46.933c0-21.333 17.067-38.4 38.4-38.4s38.4 17.067 38.4 38.4v46.933h85.333c25.6 0 46.933-21.333 46.933-46.933v-132.267h-691.2v132.267c0 25.6 21.333 46.933 46.933 46.933zM810.667 59.733h-597.333c-25.6 0-46.933 21.333-46.933 46.933v388.267h695.467v-388.267c-4.267-25.6-25.6-46.933-51.2-46.933z" />
<glyph unicode="&#xe912;" glyph-name="camera" d="M896 742.4h-149.333l-72.533 110.933c-8.533 8.533-17.067 17.067-29.867 17.067h-260.267c-12.8 0-25.6-4.267-29.867-17.067l-76.8-110.933h-149.333c-68.267 0-123.733-55.467-123.733-123.733v-469.333c0-68.267 55.467-123.733 123.733-123.733h768c68.267 0 123.733 55.467 123.733 123.733v469.333c0 68.267-55.467 123.733-123.733 123.733zM942.933 149.333c0-25.6-21.333-46.933-46.933-46.933h-768c-25.6 0-46.933 21.333-46.933 46.933v469.333c0 25.6 21.333 46.933 46.933 46.933h170.667c12.8 0 25.6 4.267 29.867 17.067l72.533 110.933h217.6l72.533-110.933c8.533-8.533 17.067-17.067 29.867-17.067h170.667c25.6 0 46.933-21.333 46.933-46.933v-469.333zM512 614.4c-115.2 0-209.067-93.867-209.067-209.067s93.867-209.067 209.067-209.067c115.2 0 209.067 93.867 209.067 209.067s-93.867 209.067-209.067 209.067zM512 273.067c-72.533 0-132.267 59.733-132.267 132.267s59.733 132.267 132.267 132.267c72.533 0 132.267-59.733 132.267-132.267s-59.733-132.267-132.267-132.267z" />
<glyph unicode="&#xe913;" glyph-name="check" d="M384 174.933c-8.533 0-17.067 4.267-25.6 12.8l-213.333 213.333c-12.8 12.8-12.8 38.4 0 51.2s38.4 12.8 51.2 0l187.733-187.733 443.733 443.733c12.8 12.8 38.4 12.8 51.2 0s12.8-38.4 0-51.2l-469.333-469.333c-8.533-8.533-17.067-12.8-25.6-12.8z" />
<glyph unicode="&#xe914;" glyph-name="check-square" d="M942.933 814.933c-12.8 12.8-38.4 12.8-51.2 0l-401.067-401.067-102.4 102.4c-12.8 12.8-38.4 12.8-51.2 0s-12.8-38.4 0-51.2l128-128c8.533-8.533 17.067-12.8 25.6-12.8s17.067 4.267 25.6 12.8l426.667 426.667c17.067 12.8 17.067 38.4 0 51.2zM874.667 486.4c-21.333 0-38.4-17.067-38.4-38.4v-298.667c0-25.6-21.333-46.933-46.933-46.933h-597.333c-25.6 0-46.933 21.333-46.933 46.933v597.333c0 25.6 21.333 46.933 46.933 46.933h469.333c21.333 0 38.4 17.067 38.4 38.4s-17.067 38.4-38.4 38.4h-469.333c-68.267 0-123.733-55.467-123.733-123.733v-597.333c0-68.267 55.467-123.733 123.733-123.733h597.333c68.267 0 123.733 55.467 123.733 123.733v298.667c0 21.333-17.067 38.4-38.4 38.4z" />
<glyph unicode="&#xe915;" glyph-name="chevron-down" d="M793.6 601.6c-12.8 12.8-38.4 12.8-51.2 0l-230.4-230.4-230.4 230.4c-12.8 17.067-38.4 17.067-51.2 0s-17.067-38.4 0-51.2l256-256c8.533-8.533 17.067-12.8 25.6-12.8s17.067 4.267 25.6 12.8l256 256c17.067 12.8 17.067 38.4 0 51.2z" />
<glyph unicode="&#xe916;" glyph-name="chevron-left" d="M435.2 448l230.4 230.4c12.8 12.8 12.8 38.4 0 51.2s-38.4 12.8-51.2 0l-256-256c-12.8-12.8-12.8-38.4 0-51.2l256-256c8.533-8.533 17.067-12.8 25.6-12.8s17.067 4.267 25.6 12.8c12.8 12.8 12.8 38.4 0 51.2l-230.4 230.4z" />
<glyph unicode="&#xe917;" glyph-name="chevron-right" d="M665.6 473.6l-256 256c-12.8 17.067-38.4 17.067-51.2 0s-17.067-38.4 0-51.2l230.4-230.4-230.4-230.4c-12.8-12.8-12.8-38.4 0-51.2 8.533-8.533 17.067-12.8 25.6-12.8s17.067 4.267 25.6 12.8l256 256c17.067 12.8 17.067 38.4 0 51.2z" />
<glyph unicode="&#xe918;" glyph-name="chevrons-right" d="M793.6 473.6l-213.333 213.333c-12.8 12.8-38.4 12.8-51.2 0s-12.8-38.4 0-51.2l187.733-187.733-187.733-187.733c-12.8-12.8-12.8-38.4 0-51.2 8.533-8.533 17.067-12.8 25.6-12.8s17.067 4.267 25.6 12.8l213.333 213.333c17.067 12.8 17.067 38.4 0 51.2zM281.6 686.933c-12.8 17.067-38.4 17.067-51.2 0s-17.067-38.4 0-51.2l187.733-187.733-187.733-187.733c-12.8-12.8-12.8-38.4 0-51.2 8.533-8.533 17.067-12.8 25.6-12.8s17.067 4.267 25.6 12.8l213.333 213.333c12.8 12.8 12.8 38.4 0 51.2l-213.333 213.333z" />
<glyph unicode="&#xe919;" glyph-name="chevron-up" d="M768 281.6c-8.533 0-17.067 4.267-25.6 12.8l-230.4 230.4-230.4-230.4c-12.8-12.8-38.4-12.8-51.2 0s-12.8 38.4 0 51.2l256 256c12.8 12.8 38.4 12.8 51.2 0l256-256c12.8-12.8 12.8-38.4 0-51.2-8.533-8.533-17.067-12.8-25.6-12.8z" />
<glyph unicode="&#xe91a;" glyph-name="clipboard" d="M768 827.733h-46.933v4.267c0 42.667-34.133 81.067-81.067 81.067h-256c-42.667 0-81.067-38.4-81.067-81.067v-4.267h-46.933c-68.267 0-123.733-55.467-123.733-123.733v-597.333c0-68.267 55.467-123.733 123.733-123.733h512c68.267 0 123.733 55.467 123.733 123.733v597.333c0 68.267-55.467 123.733-123.733 123.733zM379.733 832c0 4.267 4.267 4.267 4.267 4.267h256c4.267 0 4.267-4.267 4.267-4.267v-85.333c0-4.267-4.267-4.267-4.267-4.267h-256c-4.267 0-4.267 0-4.267 4.267v85.333zM814.933 106.667c0-25.6-21.333-46.933-46.933-46.933h-512c-25.6 0-46.933 21.333-46.933 46.933v597.333c0 25.6 21.333 46.933 46.933 46.933h46.933v-4.267c0-42.667 38.4-81.067 81.067-81.067h256c42.667 0 81.067 34.133 81.067 81.067v4.267h46.933c25.6 0 46.933-21.333 46.933-46.933v-597.333z" />
<glyph unicode="&#xe91b;" glyph-name="clock" d="M512 913.067c-256 0-465.067-209.067-465.067-465.067s209.067-465.067 465.067-465.067c256 0 465.067 209.067 465.067 465.067s-209.067 465.067-465.067 465.067zM512 59.733c-213.333 0-388.267 174.933-388.267 388.267s174.933 388.267 388.267 388.267c213.333 0 388.267-174.933 388.267-388.267s-174.933-388.267-388.267-388.267zM699.733 396.8l-149.333 76.8v230.4c0 21.333-17.067 38.4-38.4 38.4s-38.4-17.067-38.4-38.4v-256c0-12.8 8.533-25.6 21.333-34.133l170.667-85.333c4.267-4.267 12.8-4.267 17.067-4.267 12.8 0 25.6 8.533 34.133 21.333 8.533 17.067 0 42.667-17.067 51.2z" />
<glyph unicode="&#xe91c;" glyph-name="download" d="M896 358.4c-21.333 0-38.4-17.067-38.4-38.4v-170.667c0-25.6-21.333-46.933-46.933-46.933h-597.333c-25.6 0-46.933 21.333-46.933 46.933v170.667c0 21.333-17.067 38.4-38.4 38.4s-38.4-17.067-38.4-38.4v-170.667c0-68.267 55.467-123.733 123.733-123.733h597.333c68.267 0 123.733 55.467 123.733 123.733v170.667c0 21.333-17.067 38.4-38.4 38.4zM486.4 294.4c0 0 0 0 0 0 4.267-4.267 8.533-4.267 12.8-8.533 4.267 0 8.533-4.267 12.8-4.267s8.533 0 12.8 4.267c4.267 0 8.533 4.267 12.8 8.533 0 0 0 0 0 0l213.333 213.333c12.8 12.8 12.8 38.4 0 51.2s-38.4 12.8-51.2 0l-149.333-149.333v422.4c0 21.333-17.067 38.4-38.4 38.4s-38.4-17.067-38.4-38.4v-422.4l-149.333 149.333c-12.8 17.067-38.4 17.067-51.2 0s-12.8-38.4 0-51.2l213.333-213.333z" />
<glyph unicode="&#xe91d;" glyph-name="edit" d="M849.067 439.467c-21.333 0-38.4-17.067-38.4-38.4v-298.667c0-25.6-21.333-46.933-46.933-46.933h-597.333c-25.6 0-46.933 21.333-46.933 46.933v601.6c0 25.6 21.333 46.933 46.933 46.933h298.667c21.333 0 38.4 17.067 38.4 38.4s-17.067 38.4-38.4 38.4h-298.667c-64-4.267-119.467-59.733-119.467-123.733v-597.333c0-68.267 55.467-123.733 123.733-123.733h597.333c68.267 0 123.733 55.467 123.733 123.733v298.667c-4.267 17.067-21.333 34.133-42.667 34.133zM942.933 878.933c-46.933 46.933-132.267 46.933-179.2 0l-405.333-405.333c-4.267-4.267-8.533-12.8-8.533-17.067l-42.667-170.667c-4.267-12.8 0-25.6 8.533-34.133s17.067-12.8 25.6-12.8c4.267 0 4.267 0 8.533 0l170.667 42.667c8.533 0 12.8 4.267 17.067 8.533l405.333 405.333c46.933 51.2 46.933 132.267 0 183.467zM887.467 750.933l-396.8-396.8-102.4-25.6 25.6 102.4 396.8 396.8c21.333 21.333 55.467 21.333 76.8 0 21.333-25.6 21.333-55.467 0-76.8z" />
<glyph unicode="&#xe91e;" glyph-name="external-link" d="M768 443.733c-21.333 0-38.4-17.067-38.4-38.4v-256c0-25.6-21.333-46.933-46.933-46.933h-469.333c-25.6 0-46.933 21.333-46.933 46.933v469.333c0 25.6 21.333 46.933 46.933 46.933h256c21.333 0 38.4 17.067 38.4 38.4s-17.067 38.4-38.4 38.4h-256c-68.267 0-123.733-55.467-123.733-123.733v-469.333c0-68.267 55.467-123.733 123.733-123.733h469.333c68.267 0 123.733 55.467 123.733 123.733v256c0 21.333-17.067 38.4-38.4 38.4zM934.4 832c0 4.267 0 8.533-4.267 12.8 0 4.267-4.267 8.533-8.533 12.8 0 0 0 0 0 0s0 0 0 0c-4.267 4.267-8.533 4.267-12.8 8.533-4.267 0-8.533 4.267-12.8 4.267h-256c-21.333 0-38.4-17.067-38.4-38.4s17.067-38.4 38.4-38.4h166.4l-405.333-405.333c-12.8-12.8-12.8-38.4 0-51.2 8.533-8.533 17.067-12.8 25.6-12.8s17.067 4.267 25.6 12.8l405.333 405.333v-166.4c0-21.333 17.067-38.4 38.4-38.4s38.4 17.067 38.4 38.4v256c0 0 0 0 0 0z" />
<glyph unicode="&#xe91f;" glyph-name="eye" d="M1015.467 465.067c-8.533 12.8-183.467 362.667-503.467 362.667s-494.933-349.867-503.467-362.667c-4.267-8.533-4.267-21.333 0-34.133 8.533-12.8 183.467-362.667 503.467-362.667s494.933 345.6 503.467 362.667c4.267 12.8 4.267 21.333 0 34.133zM512 145.067c-234.667 0-388.267 238.933-426.667 302.933 38.4 64 192 302.933 426.667 302.933s388.267-238.933 426.667-302.933c-38.4-64-192-302.933-426.667-302.933zM512 614.4c-89.6 0-166.4-72.533-166.4-166.4s72.533-166.4 166.4-166.4 166.4 72.533 166.4 166.4-76.8 166.4-166.4 166.4zM512 358.4c-51.2 0-89.6 42.667-89.6 89.6s42.667 89.6 89.6 89.6 89.6-42.667 89.6-89.6-38.4-89.6-89.6-89.6z" />
<glyph unicode="&#xe920;" glyph-name="eye-off" d="M430.933 742.4c25.6 4.267 51.2 8.533 81.067 8.533 234.667 0 388.267-238.933 426.667-302.933-21.333-38.4-46.933-76.8-76.8-110.933-12.8-17.067-12.8-38.4 4.267-51.2 8.533-4.267 17.067-8.533 25.6-8.533s21.333 4.267 29.867 12.8c38.4 42.667 68.267 93.867 98.133 140.8 4.267 12.8 4.267 21.333 0 34.133-8.533 12.8-183.467 362.667-503.467 362.667-34.133 0-64-4.267-98.133-12.8-25.6-4.267-38.4-25.6-34.133-42.667 8.533-21.333 25.6-34.133 46.933-29.867zM1006.933 4.267l-938.667 938.667c-12.8 17.067-38.4 17.067-51.2 0s-17.067-38.4 0-51.2l187.733-187.733c-76.8-68.267-145.067-145.067-192-238.933-4.267-12.8-4.267-25.6 0-34.133 8.533-12.8 183.467-362.667 503.467-362.667 89.6 0 174.933 29.867 247.467 76.8l192-192c8.533-8.533 17.067-12.8 25.6-12.8s17.067 4.267 25.6 12.8 17.067 38.4 0 51.2zM426.667 482.133l119.467-119.467c-8.533-4.267-21.333-8.533-34.133-8.533-25.6 0-46.933 8.533-64 25.6s-29.867 38.4-29.867 64c0 12.8 4.267 25.6 8.533 38.4zM512 145.067c-234.667 0-388.267 238.933-426.667 302.933 42.667 76.8 102.4 145.067 170.667 204.8l115.2-115.2c-17.067-29.867-29.867-64-25.6-98.133 0-42.667 21.333-85.333 51.2-115.2s72.533-42.667 110.933-42.667c0 0 4.267 0 4.267 0 29.867 0 59.733 12.8 85.333 29.867l106.667-106.667c-55.467-38.4-123.733-59.733-192-59.733z" />
<glyph unicode="&#xe921;" glyph-name="file-text" d="M887.467 631.467c0 4.267-4.267 8.533-8.533 8.533 0 0 0 0 0 0l-256 256c0 0 0 0 0 0-4.267 4.267-8.533 4.267-12.8 8.533-4.267 0-8.533 4.267-12.8 4.267h-341.333c-68.267 4.267-123.733-51.2-123.733-119.467v-682.667c0-68.267 55.467-123.733 123.733-123.733h512c68.267 0 123.733 55.467 123.733 123.733v512c0 4.267 0 8.533-4.267 12.8zM635.733 785.067l128-128h-128v128zM768 59.733h-512c-25.6 0-46.933 21.333-46.933 46.933v682.667c0 25.6 21.333 46.933 46.933 46.933h302.933v-217.6c0-21.333 17.067-38.4 38.4-38.4h217.6v-473.6c0-25.6-21.333-46.933-46.933-46.933zM682.667 443.733h-341.333c-21.333 0-38.4-17.067-38.4-38.4s17.067-38.4 38.4-38.4h341.333c21.333 0 38.4 17.067 38.4 38.4s-17.067 38.4-38.4 38.4zM682.667 273.067h-341.333c-21.333 0-38.4-17.067-38.4-38.4s17.067-38.4 38.4-38.4h341.333c21.333 0 38.4 17.067 38.4 38.4s-17.067 38.4-38.4 38.4zM341.333 537.6h85.333c21.333 0 38.4 17.067 38.4 38.4s-17.067 38.4-38.4 38.4h-85.333c-21.333 0-38.4-17.067-38.4-38.4s17.067-38.4 38.4-38.4z" />
<glyph unicode="&#xe922;" glyph-name="film" d="M844.8 913.067h-665.6c-72.533 0-132.267-59.733-132.267-132.267v-665.6c0-72.533 59.733-132.267 132.267-132.267h665.6c72.533 0 132.267 59.733 132.267 132.267v665.6c0 72.533-59.733 132.267-132.267 132.267zM763.733 622.933h140.8v-140.8h-140.8v140.8zM686.933 486.4h-349.867v349.867h354.133v-349.867zM260.267 486.4h-136.533v136.533h140.8v-136.533zM123.733 409.6h140.8v-140.8h-140.8v140.8zM337.067 409.6h354.133v-354.133h-354.133v354.133zM763.733 409.6h140.8v-140.8h-140.8v140.8zM900.267 780.8v-81.067h-140.8v136.533h81.067c34.133 0 59.733-25.6 59.733-55.467zM179.2 836.267h81.067v-140.8h-136.533v85.333c0 29.867 25.6 55.467 55.467 55.467zM123.733 115.2v81.067h140.8v-140.8h-85.333c-29.867 4.267-55.467 29.867-55.467 59.733zM844.8 59.733h-81.067v140.8h140.8v-81.067c-4.267-34.133-29.867-59.733-59.733-59.733z" />
<glyph unicode="&#xe923;" glyph-name="filter" d="M972.8 849.067c-4.267 12.8-21.333 21.333-34.133 21.333h-853.333c-12.8 0-29.867-8.533-34.133-21.333s-4.267-29.867 4.267-42.667l332.8-392.533v-264.533c0-12.8 8.533-25.6 21.333-34.133l170.667-85.333c4.267-4.267 12.8-4.267 17.067-4.267 8.533 0 12.8 0 21.333 4.267 12.8 8.533 17.067 17.067 17.067 29.867v349.867l332.8 392.533c8.533 17.067 8.533 34.133 4.267 46.933zM567.467 452.267c-4.267-8.533-8.533-17.067-8.533-25.6v-302.933l-98.133 46.933v256c0 8.533-4.267 17.067-8.533 25.6l-290.133 341.333h691.2l-285.867-341.333z" />
<glyph unicode="&#xe924;" glyph-name="gift" d="M938.667 699.733h-110.933c12.8 21.333 17.067 42.667 17.067 68.267 0 81.067-64 145.067-145.067 145.067-98.133 0-157.867-72.533-192-140.8-34.133 68.267-93.867 140.8-192 140.8-81.067 0-145.067-64-145.067-145.067 0-25.6 8.533-46.933 17.067-68.267h-102.4c-21.333 0-38.4-17.067-38.4-38.4v-213.333c0-21.333 17.067-38.4 38.4-38.4h46.933v-388.267c0-21.333 17.067-38.4 38.4-38.4h682.667c21.333 0 38.4 17.067 38.4 38.4v388.267h46.933c21.333 0 38.4 17.067 38.4 38.4v213.333c0 21.333-17.067 38.4-38.4 38.4zM704 836.267c38.4 0 68.267-29.867 68.267-68.267s-29.867-68.267-68.267-68.267h-140.8c17.067 51.2 59.733 136.533 140.8 136.533zM251.733 768c0 38.4 29.867 68.267 68.267 68.267 81.067 0 123.733-85.333 140.8-140.8h-140.8c-38.4 4.267-68.267 34.133-68.267 72.533zM123.733 622.933h349.867v-140.8h-349.867v140.8zM209.067 409.6h268.8v-354.133h-268.8v354.133zM814.933 59.733h-268.8v354.133h268.8v-354.133zM900.267 486.4h-354.133v136.533h349.867v-136.533z" />
<glyph unicode="&#xe925;" glyph-name="headphones" d="M512 870.4c-230.4 0-422.4-187.733-422.4-422.4v-298.667c0-68.267 55.467-123.733 123.733-123.733h42.667c68.267 0 123.733 55.467 123.733 123.733v128c0 68.267-55.467 123.733-123.733 123.733h-89.6v46.933c0 192 153.6 345.6 345.6 345.6s345.6-153.6 345.6-345.6v-46.933h-89.6c-68.267 0-123.733-55.467-123.733-123.733v-128c0-68.267 55.467-123.733 123.733-123.733h42.667c68.267 0 123.733 55.467 123.733 123.733v298.667c0 230.4-192 422.4-422.4 422.4zM256 324.267c25.6 0 46.933-21.333 46.933-46.933v-128c0-25.6-21.333-46.933-46.933-46.933h-42.667c-25.6 0-46.933 21.333-46.933 46.933v174.933h89.6zM857.6 149.333c0-25.6-21.333-46.933-46.933-46.933h-42.667c-25.6 0-46.933 21.333-46.933 46.933v128c0 25.6 21.333 46.933 46.933 46.933h89.6v-174.933z" />
<glyph unicode="&#xe926;" glyph-name="heart" d="M512 21.333c-8.533 0-21.333 4.267-25.6 12.8l-375.467 375.467c-51.2 51.2-81.067 119.467-81.067 192s29.867 140.8 81.067 192c46.933 51.2 115.2 81.067 192 81.067 72.533 0 140.8-29.867 192-81.067l17.067-17.067 17.067 17.067c0 0 0 0 0 0 106.667 106.667 277.333 106.667 384 0v0c106.667-106.667 106.667-277.333 0-384l-375.467-375.467c-4.267-8.533-17.067-12.8-25.6-12.8zM302.933 797.867c-51.2 0-102.4-21.333-140.8-59.733-76.8-72.533-76.8-200.533 0-277.333l349.867-349.867 349.867 349.867c38.4 38.4 59.733 85.333 59.733 140.8 0 51.2-21.333 102.4-59.733 140.8v0c-38.4 38.4-85.333 59.733-140.8 59.733 0 0 0 0 0 0-51.2 0-102.4-21.333-140.8-59.733v0c0 0 0 0 0 0l-46.933-46.933c-12.8-12.8-38.4-12.8-51.2 0l-46.933 46.933c-34.133 38.4-85.333 55.467-132.267 55.467z" />
<glyph unicode="&#xe927;" glyph-name="heart-filled" d="M512 21.333c-8.533 0-21.333 4.267-25.6 12.8l-375.467 375.467c-51.2 51.2-81.067 119.467-81.067 192s29.867 140.8 81.067 192c46.933 51.2 115.2 81.067 192 81.067 72.533 0 140.8-29.867 192-81.067l17.067-17.067 17.067 17.067c0 0 0 0 0 0 106.667 106.667 277.333 106.667 384 0v0c106.667-106.667 106.667-277.333 0-384l-375.467-375.467c-4.267-8.533-17.067-12.8-25.6-12.8z" />
<glyph unicode="&#xe928;" glyph-name="help-circle" d="M512 913.067c-256 0-465.067-209.067-465.067-465.067s209.067-465.067 465.067-465.067c256 0 465.067 209.067 465.067 465.067s-209.067 465.067-465.067 465.067zM512 59.733c-213.333 0-388.267 174.933-388.267 388.267s174.933 388.267 388.267 388.267c213.333 0 388.267-174.933 388.267-388.267s-174.933-388.267-388.267-388.267zM512 273.067v0c-25.6 0-42.667-17.067-42.667-42.667s21.333-42.667 42.667-42.667 42.667 17.067 42.667 42.667-17.067 42.667-42.667 42.667zM563.2 682.667c-81.067 29.867-174.933-12.8-204.8-98.133-8.533-21.333 4.267-42.667 21.333-46.933 21.333-8.533 42.667 4.267 46.933 21.333 17.067 42.667 64 68.267 106.667 51.2 34.133-12.8 55.467-42.667 55.467-81.067 0-42.667-72.533-76.8-98.133-85.333 0 0 0 0 0 0-4.267 0-4.267-4.267-8.533-4.267 0 0-4.267-4.267-4.267-4.267s-4.267-4.267-4.267-4.267c0 0-4.267-4.267-4.267-4.267s0-4.267 0-4.267 0-4.267 0-8.533c0 0 0 0 0 0v-55.467c0-21.333 17.067-38.4 38.4-38.4s38.4 17.067 38.4 38.4v29.867c42.667 21.333 123.733 68.267 123.733 145.067 0 64-42.667 128-106.667 149.333z" />
<glyph unicode="&#xe929;" glyph-name="home" d="M917.333 605.867l-384 298.667c-12.8 8.533-34.133 8.533-46.933 0l-384-298.667c-8.533-8.533-12.8-17.067-12.8-29.867v-469.333c0-68.267 55.467-123.733 123.733-123.733h597.333c68.267 0 123.733 55.467 123.733 123.733v469.333c0 12.8-4.267 21.333-17.067 29.867zM601.6 59.733h-179.2v354.133h183.467v-354.133zM857.6 106.667c0-25.6-21.333-46.933-46.933-46.933h-132.267v388.267c0 21.333-17.067 38.4-38.4 38.4h-256c-21.333 0-38.4-17.067-38.4-38.4v-388.267h-132.267c-25.6 0-46.933 21.333-46.933 46.933v452.267l345.6 268.8 345.6-268.8v-452.267z" />
<glyph unicode="&#xe92a;" glyph-name="image" d="M810.667 870.4h-597.333c-68.267 0-123.733-55.467-123.733-123.733v-597.333c0-68.267 55.467-123.733 123.733-123.733 0 0 0 0 0 0s0 0 0 0 0 0 0 0h597.333c68.267 0 123.733 55.467 123.733 123.733v597.333c0 68.267-55.467 123.733-123.733 123.733zM166.4 746.667c0 25.6 21.333 46.933 46.933 46.933h597.333c25.6 0 46.933-21.333 46.933-46.933v-354.133l-234.667 162.133c-17.067 12.8-38.4 8.533-51.2-8.533l-371.2-443.733c-17.067 4.267-34.133 25.6-34.133 46.933v597.333zM810.667 102.4h-516.267l315.733 371.2 251.733-170.667v-153.6c-4.267-25.6-25.6-46.933-51.2-46.933zM345.6 499.2c64 0 110.933 51.2 110.933 110.933s-46.933 115.2-110.933 115.2-110.933-51.2-110.933-110.933 51.2-115.2 110.933-115.2zM345.6 661.333c25.6 0 46.933-21.333 46.933-46.933s-21.333-51.2-46.933-51.2-46.933 25.6-46.933 51.2 21.333 46.933 46.933 46.933z" />
<glyph unicode="&#xe92b;" glyph-name="info" d="M512 913.067c-256 0-465.067-209.067-465.067-465.067s209.067-465.067 465.067-465.067c256 0 465.067 209.067 465.067 465.067s-209.067 465.067-465.067 465.067zM512 59.733c-213.333 0-388.267 174.933-388.267 388.267s174.933 388.267 388.267 388.267c213.333 0 388.267-174.933 388.267-388.267s-174.933-388.267-388.267-388.267zM512 507.733c-21.333 0-38.4-17.067-38.4-38.4v-213.333c0-21.333 17.067-38.4 38.4-38.4s38.4 17.067 38.4 38.4v213.333c0 21.333-17.067 38.4-38.4 38.4zM512 686.933v0c-25.6 0-46.933-21.333-46.933-46.933s21.333-46.933 46.933-46.933 46.933 21.333 46.933 46.933-21.333 46.933-46.933 46.933z" />
<glyph unicode="&#xe92c;" glyph-name="link" d="M896 840.533c-98.133 93.867-251.733 93.867-349.867 0l-72.533-72.533c-12.8-12.8-12.8-38.4 0-51.2s38.4-12.8 51.2 0l72.533 72.533c68.267 68.267 174.933 68.267 243.2 0s72.533-179.2 4.267-247.467l-128-128c-4.267-4.267-12.8-12.8-17.067-17.067-76.8-59.733-187.733-42.667-247.467 34.133-12.8 17.067-34.133 21.333-51.2 8.533s-21.333-34.133-8.533-51.2c51.2-64 123.733-102.4 200.533-102.4 51.2 0 106.667 17.067 149.333 51.2 8.533 8.533 17.067 17.067 25.6 25.6l128 128c46.933 46.933 72.533 110.933 68.267 179.2 8.533 59.733-17.067 123.733-68.267 170.667zM494.933 183.467l-72.533-72.533c-68.267-68.267-174.933-68.267-243.2 0s-72.533 179.2-4.267 247.467l128 128c4.267 4.267 12.8 12.8 17.067 17.067 38.4 29.867 85.333 38.4 132.267 34.133 46.933-8.533 89.6-29.867 115.2-68.267 12.8-17.067 34.133-21.333 51.2-8.533s21.333 34.133 8.533 51.2c-38.4 55.467-98.133 89.6-166.4 98.133-64 8.533-132.267-8.533-183.467-46.933-8.533-8.533-21.333-12.8-29.867-21.333l-128-128c-98.133-98.133-93.867-260.267 4.267-354.133 46.933-46.933 110.933-72.533 174.933-72.533s123.733 25.6 174.933 72.533l72.533 72.533c12.8 12.8 12.8 38.4 0 51.2s-34.133 12.8-51.2 0z" />
<glyph unicode="&#xe92d;" glyph-name="lock" d="M810.667 529.067h-46.933v132.267c0 136.533-110.933 251.733-251.733 251.733s-251.733-115.2-251.733-251.733v-132.267h-46.933c-68.267 0-123.733-55.467-123.733-123.733v-298.667c0-68.267 55.467-123.733 123.733-123.733h597.333c68.267 0 123.733 55.467 123.733 123.733v298.667c0 68.267-55.467 123.733-123.733 123.733zM337.067 661.333c0 98.133 81.067 174.933 174.933 174.933s174.933-81.067 174.933-174.933v-132.267h-349.867v132.267zM857.6 106.667c0-25.6-21.333-46.933-46.933-46.933h-597.333c-25.6 0-46.933 21.333-46.933 46.933v298.667c0 25.6 21.333 46.933 46.933 46.933h597.333c25.6 0 46.933-21.333 46.933-46.933v-298.667z" />
<glyph unicode="&#xe92e;" glyph-name="log-in" d="M810.667 870.4h-170.667c-21.333 0-38.4-17.067-38.4-38.4s17.067-38.4 38.4-38.4h170.667c25.6 0 46.933-21.333 46.933-46.933v-597.333c0-25.6-21.333-46.933-46.933-46.933h-170.667c-21.333 0-38.4-17.067-38.4-38.4s17.067-38.4 38.4-38.4h170.667c68.267 0 123.733 55.467 123.733 123.733v597.333c0 68.267-55.467 123.733-123.733 123.733zM665.6 422.4c4.267 4.267 4.267 8.533 8.533 12.8 0 4.267 4.267 8.533 4.267 12.8 0 0 0 0 0 0s0 0 0 0c0 4.267 0 8.533-4.267 12.8 0 4.267-4.267 8.533-8.533 12.8 0 0 0 0 0 0l-213.333 213.333c-12.8 17.067-38.4 17.067-51.2 0s-17.067-38.4 0-51.2l149.333-149.333h-422.4c-21.333 0-38.4-17.067-38.4-38.4s17.067-38.4 38.4-38.4h422.4l-149.333-149.333c-12.8-12.8-12.8-38.4 0-51.2 8.533-8.533 17.067-12.8 25.6-12.8s17.067 4.267 25.6 12.8l213.333 213.333c0 0 0 0 0 0z" />
<glyph unicode="&#xe92f;" glyph-name="log-out" d="M384 102.4h-170.667c-25.6 0-46.933 21.333-46.933 46.933v597.333c0 25.6 21.333 46.933 46.933 46.933h170.667c21.333 0 38.4 17.067 38.4 38.4s-17.067 38.4-38.4 38.4h-170.667c-68.267 0-123.733-55.467-123.733-123.733v-597.333c0-68.267 55.467-123.733 123.733-123.733h170.667c21.333 0 38.4 17.067 38.4 38.4s-17.067 38.4-38.4 38.4zM930.133 435.2c0 4.267 4.267 8.533 4.267 12.8 0 0 0 0 0 0s0 0 0 0c0 4.267 0 8.533-4.267 12.8 0 4.267-4.267 8.533-8.533 12.8 0 0 0 0 0 0l-213.333 213.333c-12.8 12.8-38.4 12.8-51.2 0s-12.8-38.4 0-51.2l149.333-149.333h-422.4c-21.333 0-38.4-17.067-38.4-38.4s17.067-38.4 38.4-38.4h422.4l-149.333-149.333c-12.8-12.8-12.8-38.4 0-51.2 8.533-8.533 17.067-12.8 25.6-12.8s17.067 4.267 25.6 12.8l213.333 213.333c0 0 0 0 0 0 4.267 4.267 8.533 8.533 8.533 12.8z" />
<glyph unicode="&#xe930;" glyph-name="mail" d="M853.333 827.733h-682.667c-68.267 0-123.733-55.467-123.733-123.733v-512c0-68.267 55.467-123.733 123.733-123.733h682.667c68.267 0 123.733 55.467 123.733 123.733v512c0 68.267-55.467 123.733-123.733 123.733zM170.667 750.933h682.667c21.333 0 38.4-12.8 42.667-29.867l-384-268.8-384 268.8c4.267 17.067 21.333 29.867 42.667 29.867zM853.333 145.067h-682.667c-25.6 0-46.933 21.333-46.933 46.933v439.467l366.933-256c8.533-4.267 12.8-8.533 21.333-8.533s17.067 4.267 21.333 8.533l366.933 256v-439.467c0-25.6-21.333-46.933-46.933-46.933z" />
<glyph unicode="&#xe931;" glyph-name="map" d="M998.4 908.8c-12.8 8.533-25.6 8.533-38.4 0l-277.333-162.133-324.267 162.133c0 0 0 0 0 0-4.267 0-12.8 4.267-17.067 4.267 0 0 0 0 0 0s0 0-4.267 0-8.533 0-12.8-4.267c0 0 0 0 0 0l-298.667-170.667c-12.8-8.533-21.333-21.333-21.333-34.133v-682.667c0-12.8 8.533-25.6 17.067-34.133 12.8-8.533 25.6-8.533 38.4 0l281.6 162.133 324.267-162.133c0 0 0 0 0 0 4.267-4.267 8.533-4.267 17.067-4.267 4.267 0 8.533 0 12.8 4.267 0 0 0 0 4.267 0 0 0 0 0 4.267 0l298.667 170.667c12.8 8.533 17.067 17.067 17.067 34.133v682.667c0 12.8-8.533 25.6-21.333 34.133zM379.733 814.933l268.8-132.267v-597.333l-268.8 132.267v597.333zM81.067 682.667l226.133 128v-597.333l-226.133-128v597.333zM942.933 213.333l-226.133-128v597.333l226.133 128v-597.333z" />
<glyph unicode="&#xe932;" glyph-name="map-pin" d="M512 955.733c-230.4 0-422.4-187.733-422.4-422.4 0-315.733 384-576 401.067-584.533 4.267-4.267 12.8-4.267 21.333-4.267s12.8 0 21.333 4.267c17.067 12.8 401.067 268.8 401.067 584.533 0 230.4-192 422.4-422.4 422.4zM512 25.6c-76.8 55.467-345.6 273.067-345.6 507.733 0 192 153.6 345.6 345.6 345.6s345.6-153.6 345.6-345.6c0-234.667-268.8-452.267-345.6-507.733zM512 699.733c-89.6 0-166.4-72.533-166.4-166.4s72.533-166.4 166.4-166.4 166.4 72.533 166.4 166.4-76.8 166.4-166.4 166.4zM512 443.733c-51.2 0-89.6 42.667-89.6 89.6s42.667 89.6 89.6 89.6 89.6-42.667 89.6-89.6-38.4-89.6-89.6-89.6z" />
<glyph unicode="&#xe933;" glyph-name="menu" d="M896 486.4h-768c-21.333 0-38.4-17.067-38.4-38.4s17.067-38.4 38.4-38.4h768c21.333 0 38.4 17.067 38.4 38.4s-17.067 38.4-38.4 38.4zM128 665.6h768c21.333 0 38.4 17.067 38.4 38.4s-17.067 38.4-38.4 38.4h-768c-21.333 0-38.4-17.067-38.4-38.4s17.067-38.4 38.4-38.4zM896 230.4h-768c-21.333 0-38.4-17.067-38.4-38.4s17.067-38.4 38.4-38.4h768c21.333 0 38.4 17.067 38.4 38.4s-17.067 38.4-38.4 38.4z" />
<glyph unicode="&#xe934;" glyph-name="message-square" d="M810.667 870.4h-597.333c-68.267 0-123.733-55.467-123.733-123.733v-682.667c0-17.067 8.533-29.867 21.333-34.133 4.267 0 8.533-4.267 12.8-4.267 8.533 0 21.333 4.267 25.6 12.8l157.867 157.867h503.467c68.267 0 123.733 55.467 123.733 123.733v426.667c0 68.267-55.467 123.733-123.733 123.733zM857.6 320c0-25.6-21.333-46.933-46.933-46.933h-512c-8.533 0-21.333-4.267-25.6-12.8l-106.667-106.667v593.067c0 25.6 21.333 46.933 46.933 46.933h597.333c25.6 0 46.933-21.333 46.933-46.933v-426.667z" />
<glyph unicode="&#xe935;" glyph-name="mic" d="M512 281.6c89.6 0 166.4 72.533 166.4 166.4v341.333c0 89.6-72.533 166.4-166.4 166.4s-166.4-76.8-166.4-166.4v-341.333c0-89.6 76.8-166.4 166.4-166.4zM422.4 789.333c0 51.2 42.667 89.6 89.6 89.6s89.6-42.667 89.6-89.6v-341.333c0-51.2-42.667-89.6-89.6-89.6s-89.6 42.667-89.6 89.6v341.333zM810.667 571.733c-21.333 0-38.4-17.067-38.4-38.4v-85.333c0-145.067-115.2-260.267-260.267-260.267s-260.267 115.2-260.267 260.267v85.333c0 21.333-17.067 38.4-38.4 38.4s-38.4-17.067-38.4-38.4v-85.333c0-170.667 132.267-315.733 298.667-332.8v-98.133h-132.267c-21.333 0-38.4-17.067-38.4-38.4s17.067-38.4 38.4-38.4h341.333c21.333 0 38.4 17.067 38.4 38.4s-17.067 38.4-38.4 38.4h-132.267v98.133c166.4 17.067 298.667 162.133 298.667 332.8v85.333c0 21.333-17.067 38.4-38.4 38.4z" />
<glyph unicode="&#xe936;" glyph-name="minus" d="M810.667 486.4h-597.333c-21.333 0-38.4-17.067-38.4-38.4s17.067-38.4 38.4-38.4h597.333c21.333 0 38.4 17.067 38.4 38.4s-17.067 38.4-38.4 38.4z" />
<glyph unicode="&#xe937;" glyph-name="monitor" d="M853.333 870.4h-682.667c-68.267 0-123.733-55.467-123.733-123.733v-426.667c0-68.267 55.467-123.733 123.733-123.733h302.933v-98.133h-132.267c-21.333 0-38.4-17.067-38.4-38.4s17.067-38.4 38.4-38.4h341.333c21.333 0 38.4 17.067 38.4 38.4s-17.067 38.4-38.4 38.4h-132.267v98.133h302.933c68.267 0 123.733 55.467 123.733 123.733v426.667c0 68.267-55.467 123.733-123.733 123.733zM900.267 320c0-25.6-21.333-46.933-46.933-46.933h-682.667c-25.6 0-46.933 21.333-46.933 46.933v426.667c0 25.6 21.333 46.933 46.933 46.933h682.667c25.6 0 46.933-21.333 46.933-46.933v-426.667z" />
<glyph unicode="&#xe938;" glyph-name="more-horizontal" d="M512 529.067c-42.667 0-81.067-34.133-81.067-81.067 0-42.667 34.133-81.067 81.067-81.067 42.667 0 81.067 34.133 81.067 81.067 0 42.667-38.4 81.067-81.067 81.067zM507.733 448c0 4.267 4.267 4.267 4.267 4.267s4.267-4.267 4.267-4.267c0-4.267-8.533-4.267-8.533 0zM810.667 529.067c-42.667 0-81.067-34.133-81.067-81.067 0-42.667 34.133-81.067 81.067-81.067s81.067 34.133 81.067 81.067c0 42.667-38.4 81.067-81.067 81.067zM806.4 448c0 4.267 4.267 4.267 4.267 4.267s4.267-4.267 4.267-4.267c0-4.267-8.533-4.267-8.533 0zM213.333 529.067c-42.667 0-81.067-34.133-81.067-81.067 0-42.667 34.133-81.067 81.067-81.067s81.067 38.4 81.067 81.067c0 42.667-38.4 81.067-81.067 81.067zM209.067 448c0 4.267 4.267 4.267 4.267 4.267s4.267-4.267 4.267-4.267c0-4.267-8.533-4.267-8.533 0z" />
<glyph unicode="&#xe939;" glyph-name="paperclip" d="M354.133-29.867c-76.8 0-149.333 29.867-209.067 85.333-115.2 115.2-115.2 298.667 0 413.867l392.533 392.533c38.4 38.4 89.6 59.733 145.067 59.733s106.667-21.333 145.067-59.733c81.067-81.067 81.067-213.333 0-294.4l-392.533-392.533c-46.933-46.933-123.733-46.933-174.933 0-21.333 21.333-34.133 55.467-34.133 85.333s12.8 64 34.133 85.333l362.667 362.667c12.8 12.8 38.4 12.8 51.2 0s12.8-38.4 0-51.2l-362.667-362.667c-8.533-8.533-12.8-21.333-12.8-34.133s4.267-25.6 12.8-34.133c17.067-17.067 51.2-17.067 68.267 0l392.533 392.533c51.2 51.2 51.2 136.533 0 187.733s-136.533 51.2-187.733 0l-392.533-392.533c-85.333-85.333-85.333-226.133 0-311.467s226.133-85.333 311.467 0l392.533 392.533c12.8 12.8 38.4 12.8 51.2 0s12.8-38.4 0-51.2l-392.533-392.533c-51.2-51.2-128-81.067-200.533-81.067z" />
<glyph unicode="&#xe93a;" glyph-name="phone-call" d="M827.733-34.133c-4.267 0-8.533 0-8.533 0-136.533 12.8-268.8 64-384 136.533-106.667 68.267-200.533 162.133-268.8 268.8-76.8 110.933-123.733 247.467-136.533 384-4.267 34.133 8.533 64 25.6 89.6s51.2 42.667 81.067 42.667c4.267 0 8.533 0 12.8 0h128c0 0 0 0 0 0 59.733 0 110.933-46.933 119.467-106.667 8.533-34.133 21.333-72.533 34.133-110.933 17.067-42.667 4.267-93.867-25.6-128l-34.133-34.133c51.2-81.067 119.467-153.6 204.8-204.8l34.133 34.133c34.133 34.133 85.333 42.667 128 25.6 34.133-12.8 72.533-21.333 110.933-29.867 64-8.533 106.667-64 106.667-123.733v-128c0-34.133-12.8-64-34.133-85.333-29.867-17.067-59.733-29.867-93.867-29.867 0 0 0 0 0 0zM281.6 814.933c0 0 0 0 0 0h-128c-17.067 0-29.867-8.533-38.4-17.067s-12.8-21.333-12.8-34.133c12.8-123.733 55.467-247.467 123.733-354.133 64-98.133 145.067-183.467 243.2-243.2 106.667-68.267 226.133-110.933 354.133-123.733 0 0 0 0 0 0 17.067 0 29.867 4.267 38.4 12.8s12.8 21.333 12.8 34.133v128c0 0 0 0 0 0 0 25.6-17.067 46.933-42.667 46.933-42.667 4.267-85.333 17.067-128 29.867-17.067 8.533-38.4 4.267-51.2-12.8l-55.467-55.467c-12.8-12.8-29.867-12.8-46.933-4.267-110.933 64-204.8 157.867-268.8 268.8-8.533 12.8-4.267 34.133 4.267 46.933l55.467 55.467c12.8 12.8 17.067 34.133 12.8 51.2-17.067 42.667-25.6 85.333-29.867 128 0 25.6-21.333 42.667-42.667 42.667zM785.067 516.267c-17.067 0-34.133 12.8-38.4 29.867-8.533 72.533-64 128-136.533 140.8-21.333 4.267-34.133 25.6-29.867 42.667 4.267 21.333 25.6 34.133 42.667 29.867 102.4-17.067 179.2-98.133 200.533-196.267 4.267-21.333-8.533-38.4-29.867-42.667 0-4.267-4.267-4.267-8.533-4.267zM955.733 516.267c-17.067 0-34.133 12.8-38.4 34.133-17.067 162.133-145.067 285.867-307.2 307.2-21.333 4.267-34.133 21.333-34.133 42.667 4.267 21.333 21.333 34.133 42.667 34.133 196.267-21.333 349.867-174.933 371.2-371.2 8.533-25.6-8.533-42.667-34.133-46.933 4.267 4.267 4.267 0 0 0z" />
<glyph unicode="&#xe93b;" glyph-name="play-o" d="M874.667 477.867l-597.333 384c-12.8 8.533-25.6 8.533-38.4 0-12.8-4.267-21.333-17.067-21.333-29.867v-768c0-12.8 8.533-25.6 21.333-34.133 4.267-4.267 12.8-4.267 17.067-4.267 8.533 0 12.8 0 21.333 4.267l597.333 384c12.8 8.533 17.067 17.067 17.067 29.867s-8.533 29.867-17.067 34.133zM294.4 132.267v631.467l490.667-315.733-490.667-315.733z" />
<glyph unicode="&#xe93c;" glyph-name="plus" d="M810.667 486.4h-260.267v260.267c0 21.333-17.067 38.4-38.4 38.4s-38.4-17.067-38.4-38.4v-260.267h-260.267c-21.333 0-38.4-17.067-38.4-38.4s17.067-38.4 38.4-38.4h260.267v-260.267c0-21.333 17.067-38.4 38.4-38.4s38.4 17.067 38.4 38.4v260.267h260.267c21.333 0 38.4 17.067 38.4 38.4s-17.067 38.4-38.4 38.4z" />
<glyph unicode="&#xe93d;" glyph-name="pocket" d="M853.333 870.4h-682.667c-68.267 0-123.733-55.467-123.733-123.733v-256c0-256 209.067-465.067 465.067-465.067s465.067 209.067 465.067 465.067v256c0 68.267-55.467 123.733-123.733 123.733zM900.267 490.667c0-213.333-174.933-388.267-388.267-388.267s-388.267 174.933-388.267 388.267v256c0 25.6 21.333 46.933 46.933 46.933h682.667c25.6 0 46.933-21.333 46.933-46.933v-256zM657.067 558.933l-145.067-145.067-145.067 145.067c-12.8 17.067-38.4 17.067-51.2 0s-12.8-38.4 0-51.2l170.667-170.667c8.533-8.533 17.067-12.8 25.6-12.8s17.067 4.267 25.6 12.8l170.667 170.667c12.8 12.8 12.8 38.4 0 51.2-12.8 17.067-38.4 17.067-51.2 0z" />
<glyph unicode="&#xe93e;" glyph-name="power" d="M810.667 704c-12.8 12.8-38.4 12.8-51.2 0s-12.8-38.4 0-51.2c136.533-136.533 136.533-354.133 0-490.667s-354.133-136.533-490.667 0c-136.533 136.533-136.533 354.133 0 490.667 12.8 12.8 12.8 38.4 0 51.2-17.067 12.8-38.4 12.8-55.467 0-162.133-166.4-162.133-430.933 0-597.333 81.067-81.067 192-123.733 298.667-123.733s217.6 42.667 298.667 123.733c162.133 166.4 162.133 430.933 0 597.333zM512 409.6c21.333 0 38.4 17.067 38.4 38.4v426.667c0 21.333-17.067 38.4-38.4 38.4s-38.4-17.067-38.4-38.4v-426.667c0-21.333 17.067-38.4 38.4-38.4z" />
<glyph unicode="&#xe93f;" glyph-name="printer" d="M853.333 614.4h-46.933v260.267c0 21.333-17.067 38.4-38.4 38.4h-512c-21.333 0-38.4-17.067-38.4-38.4v-260.267h-46.933c-68.267 0-123.733-55.467-123.733-123.733v-213.333c0-68.267 55.467-123.733 123.733-123.733h46.933v-132.267c0-21.333 17.067-38.4 38.4-38.4h512c21.333 0 38.4 17.067 38.4 38.4v132.267h46.933c68.267 0 123.733 55.467 123.733 123.733v213.333c0 68.267-55.467 123.733-123.733 123.733zM294.4 836.267h439.467v-226.133h-439.467v226.133zM729.6 59.733h-435.2v268.8h439.467v-268.8zM900.267 277.333c0-25.6-21.333-46.933-46.933-46.933h-46.933v132.267c0 21.333-17.067 38.4-38.4 38.4h-512c-21.333 0-38.4-17.067-38.4-38.4v-132.267h-46.933c-25.6 0-46.933 21.333-46.933 46.933v213.333c0 25.6 21.333 46.933 46.933 46.933h682.667c25.6 0 46.933-21.333 46.933-46.933v-213.333z" />
<glyph unicode="&#xe940;" glyph-name="search" d="M942.933-21.333c-8.533 0-17.067 4.267-25.6 8.533l-132.267 123.733-17.067-8.533c-72.533-55.467-162.133-89.6-256-89.6-4.267 0-8.533 0-17.067 0-247.467 0-452.267 200.533-452.267 452.267 0 243.2 196.267 443.733 439.467 452.267 4.267 0 8.533 0 17.067 0 251.733 0 452.267-200.533 452.267-452.267 0-102.4-34.133-200.533-98.133-281.6l-12.8-17.067 128-123.733c12.8-12.8 17.067-38.4 0-51.2-4.267-8.533-12.8-12.8-25.6-12.8v0zM494.933 840.533c-4.267 0-8.533 0-12.8 0-209.067-4.267-371.2-179.2-366.933-388.267 4.267-204.8 174.933-366.933 379.733-366.933 4.267 0 8.533 0 12.8 0 209.067 4.267 371.2 179.2 366.933 388.267-4.267 204.8-174.933 371.2-379.733 366.933z" />
<glyph unicode="&#xe941;" glyph-name="send" d="M977.067 874.667c0 4.267 0 8.533 0 8.533s0 4.267 0 4.267-4.267 8.533-8.533 12.8c-4.267 4.267-8.533 4.267-12.8 8.533 0 0-4.267 0-4.267 0-4.267 0-8.533 0-8.533 0s0 0-4.267 0-8.533 0-12.8 0l-853.333-298.667c-12.8-4.267-25.6-17.067-25.6-34.133s8.533-29.867 21.333-34.133l371.2-166.4 166.4-371.2c4.267-12.8 21.333-21.333 34.133-21.333 0 0 0 0 0 0 17.067 0 29.867 8.533 34.133 25.6l298.667 853.333c4.267 4.267 4.267 8.533 4.267 12.8 0 0 0 0 0 0zM797.867 785.067l-337.067-337.067-273.067 123.733 610.133 213.333zM635.733 123.733l-123.733 273.067 337.067 337.067-213.333-610.133z" />
<glyph unicode="&#xe942;" glyph-name="server" d="M853.333 913.067h-682.667c-68.267 0-123.733-55.467-123.733-123.733v-170.667c0-68.267 55.467-123.733 123.733-123.733h682.667c68.267 0 123.733 55.467 123.733 123.733v170.667c0 68.267-55.467 123.733-123.733 123.733zM900.267 618.667c0-25.6-21.333-46.933-46.933-46.933h-682.667c-25.6 0-46.933 21.333-46.933 46.933v170.667c0 25.6 21.333 46.933 46.933 46.933h682.667c25.6 0 46.933-21.333 46.933-46.933v-170.667zM853.333 401.067h-682.667c-68.267 0-123.733-55.467-123.733-123.733v-170.667c0-68.267 55.467-123.733 123.733-123.733h682.667c68.267 0 123.733 55.467 123.733 123.733v170.667c0 68.267-55.467 123.733-123.733 123.733zM900.267 106.667c0-25.6-21.333-46.933-46.933-46.933h-682.667c-25.6 0-46.933 21.333-46.933 46.933v170.667c0 25.6 21.333 46.933 46.933 46.933h682.667c25.6 0 46.933-21.333 46.933-46.933v-170.667zM256 742.4v0c-21.333 0-38.4-17.067-38.4-38.4s17.067-38.4 38.4-38.4 38.4 17.067 38.4 38.4-17.067 38.4-38.4 38.4zM256 230.4v0c-21.333 0-38.4-17.067-38.4-38.4s17.067-38.4 38.4-38.4 38.4 17.067 38.4 38.4-17.067 38.4-38.4 38.4z" />
<glyph unicode="&#xe943;" glyph-name="settings" d="M512 614.4c-89.6 0-166.4-72.533-166.4-166.4s72.533-166.4 166.4-166.4 166.4 72.533 166.4 166.4-76.8 166.4-166.4 166.4zM512 358.4c-51.2 0-89.6 42.667-89.6 89.6s42.667 89.6 89.6 89.6 89.6-42.667 89.6-89.6-38.4-89.6-89.6-89.6zM861.867 307.2c4.267 12.8 17.067 21.333 34.133 21.333 68.267 0 123.733 55.467 123.733 123.733s-55.467 123.733-123.733 123.733h-8.533c-12.8 0-21.333 4.267-29.867 17.067 0 4.267 0 4.267-4.267 8.533-4.267 12.8-4.267 25.6 8.533 38.4 46.933 46.933 46.933 123.733 0 174.933v0c0 0 0 0 0 0-21.333 21.333-55.467 34.133-85.333 34.133 0 0 0 0 0 0-34.133 0-64-12.8-89.6-38.4-8.533-8.533-25.6-12.8-38.4-8.533s-21.333 17.067-21.333 34.133c0 68.267-55.467 123.733-123.733 123.733s-123.733-55.467-123.733-123.733v-8.533c0-12.8-4.267-21.333-17.067-29.867-4.267 0-4.267 0-8.533-4.267 0-4.267-17.067 0-25.6 8.533-46.933 46.933-123.733 46.933-174.933 0-46.933-46.933-46.933-123.733 0-174.933 12.8-8.533 12.8-25.6 8.533-38.4s-17.067-21.333-34.133-21.333c-68.267 0-123.733-55.467-123.733-123.733s55.467-123.733 123.733-123.733h8.533c12.8 0 25.6-8.533 29.867-21.333s4.267-25.6-8.533-38.4c-21.333-21.333-34.133-55.467-34.133-85.333 0-34.133 12.8-64 34.133-85.333 0 0 0 0 0 0 46.933-46.933 123.733-46.933 174.933 4.267 8.533 8.533 25.6 12.8 38.4 4.267 12.8-4.267 21.333-17.067 21.333-34.133 0-68.267 55.467-123.733 123.733-123.733s123.733 55.467 123.733 123.733v8.533c0 12.8 8.533 25.6 21.333 29.867s25.6 4.267 38.4-8.533c21.333-21.333 55.467-34.133 85.333-34.133 0 0 0 0 0 0 34.133 0 64 12.8 85.333 34.133s34.133 55.467 34.133 85.333c0 34.133-12.8 64-38.4 89.6-8.533 8.533-8.533 25.6-4.267 38.4 0-4.267 0 0 0 0zM819.2 213.333c17.067-17.067 17.067-51.2 0-68.267s-51.2-17.067-72.533 4.267c-29.867 29.867-76.8 38.4-119.467 21.333-38.4-17.067-64-55.467-64-98.133v-8.533c0-25.6-21.333-46.933-46.933-46.933s-46.933 21.333-46.933 46.933c0 0 0 4.267 0 4.267 0 42.667-29.867 85.333-68.267 98.133-12.8 4.267-29.867 8.533-42.667 8.533-29.867 0-55.467-12.8-76.8-34.133-17.067-17.067-46.933-17.067-68.267 0 0 0 0 0 0 0-8.533 8.533-12.8 21.333-12.8 34.133s4.267 25.6 17.067 38.4c29.867 29.867 38.4 76.8 21.333 119.467-17.067 38.4-55.467 64-98.133 64h-12.8c-25.6 0-46.933 21.333-46.933 46.933s21.333 46.933 46.933 46.933c0 0 4.267 0 4.267 0 42.667 0 85.333 29.867 98.133 68.267 17.067 42.667 8.533 85.333-25.6 123.733-17.067 17.067-17.067 51.2 0 68.267 21.333 17.067 51.2 17.067 72.533-4.267 29.867-29.867 72.533-38.4 110.933-25.6 4.267 0 8.533 0 8.533 4.267 38.4 17.067 64 55.467 64 98.133v8.533c0 25.6 21.333 46.933 46.933 46.933s46.933-21.333 46.933-51.2c0-42.667 25.6-81.067 64-98.133s85.333-8.533 123.733 25.6c8.533 8.533 21.333 12.8 34.133 12.8v0c12.8 0 25.6-4.267 34.133-12.8 0 0 0 0 0 0 21.333-21.333 21.333-51.2 0-72.533-29.867-29.867-38.4-72.533-25.6-110.933 0-4.267 0-8.533 4.267-8.533 17.067-38.4 55.467-64 98.133-64h8.533c25.6 0 46.933-21.333 46.933-46.933s-21.333-46.933-51.2-46.933c-42.667 0-81.067-25.6-98.133-64-17.067-46.933-8.533-93.867 25.6-128z" />
<glyph unicode="&#xe944;" glyph-name="share" d="M853.333 486.4c-21.333 0-38.4-17.067-38.4-38.4v-341.333c0-25.6-21.333-46.933-46.933-46.933h-512c-25.6 0-46.933 21.333-46.933 46.933v341.333c0 21.333-17.067 38.4-38.4 38.4s-38.4-17.067-38.4-38.4v-341.333c0-68.267 55.467-123.733 123.733-123.733h512c68.267 0 123.733 55.467 123.733 123.733v341.333c0 21.333-17.067 38.4-38.4 38.4zM366.933 678.4l106.667 106.667v-465.067c0-21.333 17.067-38.4 38.4-38.4s38.4 17.067 38.4 38.4v465.067l106.667-106.667c8.533-8.533 17.067-12.8 25.6-12.8s17.067 4.267 25.6 12.8c12.8 12.8 12.8 38.4 0 51.2l-170.667 170.667c-4.267 4.267-8.533 4.267-12.8 8.533-8.533 4.267-21.333 4.267-29.867 0-4.267 0-8.533-4.267-12.8-8.533l-170.667-170.667c-12.8-12.8-12.8-38.4 4.267-51.2s38.4-17.067 51.2 0z" />
<glyph unicode="&#xe945;" glyph-name="shield" d="M866.133 780.8l-341.333 128c-8.533 4.267-17.067 4.267-25.6 0l-341.333-128c-12.8-4.267-25.6-17.067-25.6-34.133v-298.667c0-277.333 345.6-452.267 362.667-460.8 4.267-4.267 12.8-4.267 17.067-4.267s12.8 0 17.067 4.267c12.8 8.533 362.667 183.467 362.667 460.8v298.667c0 17.067-12.8 29.867-25.6 34.133zM814.933 448c0-200.533-238.933-345.6-302.933-384-64 38.4-302.933 183.467-302.933 384v273.067l302.933 115.2 302.933-115.2v-273.067z" />
<glyph unicode="&#xe946;" glyph-name="shopping-bag" d="M930.133 716.8c0 0 0 4.267 0 0-4.267 4.267-4.267 8.533-4.267 8.533l-128 170.667c-8.533 8.533-17.067 17.067-29.867 17.067h-512c-12.8 0-21.333-4.267-29.867-17.067l-128-170.667c0 0 0-4.267-4.267-4.267 0 0 0-4.267 0-4.267 0-4.267-4.267-8.533-4.267-12.8v-597.333c0-68.267 55.467-123.733 123.733-123.733h597.333c68.267 0 123.733 55.467 123.733 123.733v597.333c0 4.267 0 8.533-4.267 12.8zM273.067 836.267h473.6l72.533-98.133h-618.667l72.533 98.133zM810.667 59.733h-597.333c-25.6 0-46.933 21.333-46.933 46.933v558.933h695.467v-558.933c-4.267-25.6-25.6-46.933-51.2-46.933zM682.667 571.733c-21.333 0-38.4-17.067-38.4-38.4 0-72.533-59.733-132.267-132.267-132.267s-132.267 59.733-132.267 132.267c0 21.333-17.067 38.4-38.4 38.4s-38.4-17.067-38.4-38.4c0-115.2 93.867-209.067 209.067-209.067s209.067 93.867 209.067 209.067c0 21.333-17.067 38.4-38.4 38.4z" />
<glyph unicode="&#xe947;" glyph-name="shopping-cart" d="M384 123.733c-42.667 0-81.067-34.133-81.067-81.067s38.4-81.067 81.067-81.067 81.067 34.133 81.067 81.067-38.4 81.067-81.067 81.067zM379.733 42.667c0 4.267 4.267 4.267 4.267 4.267s4.267-4.267 4.267-4.267c0-4.267-8.533-4.267-8.533 0zM853.333 123.733c-42.667 0-81.067-34.133-81.067-81.067s34.133-81.067 81.067-81.067 81.067 34.133 81.067 81.067-38.4 81.067-81.067 81.067zM849.067 42.667c0 4.267 4.267 4.267 4.267 4.267s4.267-4.267 4.267-4.267c0-4.267-8.533-4.267-8.533 0zM1011.2 708.267c-8.533 8.533-17.067 12.8-29.867 12.8h-695.467l-34.133 183.467c-4.267 17.067-21.333 29.867-38.4 29.867h-170.667c-21.333 0-38.4-17.067-38.4-38.4s17.067-38.4 38.4-38.4h140.8l38.4-183.467c0 0 0-4.267 0-4.267l72.533-354.133c12.8-59.733 59.733-98.133 119.467-98.133 0 0 0 0 4.267 0h413.867c59.733 0 110.933 38.4 123.733 98.133l68.267 358.4c-4.267 12.8-8.533 25.6-12.8 34.133zM874.667 332.8c-4.267-21.333-25.6-38.4-46.933-38.4 0 0 0 0 0 0h-413.867c-21.333 0-42.667 17.067-46.933 38.4l-64 311.467h635.733l-64-311.467z" />
<glyph unicode="&#xe948;" glyph-name="star" d="M972.8 558.933c-4.267 12.8-17.067 21.333-29.867 25.6l-277.333 38.4-123.733 247.467c-12.8 25.6-55.467 25.6-68.267 0l-119.467-243.2-273.067-42.667c-12.8 0-25.6-12.8-29.867-25.6s0-29.867 8.533-38.4l200.533-192-46.933-273.067c-4.267-17.067 0-29.867 12.8-38.4 8.533-4.267 12.8-8.533 21.333-8.533 4.267 0 12.8 0 17.067 4.267l247.467 128 247.467-128c12.8-8.533 29.867-4.267 38.4 4.267 12.8 8.533 17.067 21.333 12.8 38.4l-46.933 273.067 200.533 192c8.533 12.8 12.8 25.6 8.533 38.4zM699.733 366.933c-8.533-8.533-12.8-21.333-12.8-34.133l38.4-217.6-196.267 102.4c-12.8 4.267-25.6 4.267-34.133 0l-196.267-102.4 38.4 217.6c0 12.8 0 25.6-12.8 34.133l-157.867 153.6 217.6 34.133c12.8 0 21.333 8.533 29.867 21.333l98.133 200.533 98.133-200.533c4.267-12.8 17.067-17.067 29.867-21.333l221.867-34.133-162.133-153.6z" />
<glyph unicode="&#xe949;" glyph-name="star-filled" d="M972.8 558.933c-4.267 12.8-17.067 21.333-29.867 25.6l-277.333 38.4-123.733 247.467c-12.8 25.6-55.467 25.6-68.267 0l-119.467-243.2-273.067-42.667c-12.8 0-25.6-12.8-29.867-25.6s0-29.867 8.533-38.4l200.533-192-46.933-273.067c-4.267-17.067 0-29.867 12.8-38.4 8.533-4.267 12.8-8.533 21.333-8.533 4.267 0 12.8 0 17.067 4.267l247.467 128 247.467-128c12.8-8.533 29.867-4.267 38.4 4.267 12.8 8.533 17.067 21.333 12.8 38.4l-46.933 273.067 200.533 192c8.533 12.8 12.8 25.6 8.533 38.4z" />
<glyph unicode="&#xe94a;" glyph-name="thumbs-down" d="M968.533 793.6c-8.533 68.267-68.267 119.467-136.533 119.467h-593.067c-59.733 4.267-115.2-42.667-123.733-102.4l-59.733-384c-8.533-68.267 34.133-128 102.4-140.8 8.533 0 12.8 0 21.333 0h204.8v-136.533c0-89.6 72.533-166.4 166.4-166.4 12.8 0 29.867 8.533 34.133 21.333l162.133 362.667h89.6c0 0 0 0 4.267 0 68.267 0 123.733 51.2 136.533 119.467 0 0 0 4.267 0 4.267v298.667c-8.533 0-8.533 4.267-8.533 4.267zM682.667 413.867l-157.867-349.867c-38.4 8.533-68.267 46.933-68.267 89.6v170.667c0 21.333-17.067 38.4-38.4 38.4h-238.933c-4.267 0-4.267 0-8.533 0-25.6 0-42.667 25.6-42.667 51.2l59.733 384c4.267 21.333 25.6 42.667 46.933 42.667 0 0 0 0 0 0h448v-426.667zM896 494.933c-4.267-29.867-29.867-51.2-64-51.2h-76.8v392.533h76.8c0 0 0 0 0 0 29.867 0 55.467-21.333 59.733-51.2v-290.133z" />
<glyph unicode="&#xe94b;" glyph-name="thumbs-up" d="M947.2 563.2c-21.333 25.6-46.933 42.667-81.067 46.933-8.533 0-12.8 0-21.333 0h-204.8v136.533c0 89.6-72.533 166.4-166.4 166.4-12.8 0-29.867-8.533-34.133-21.333l-162.133-362.667h-98.133c-68.267 0-123.733-55.467-123.733-123.733v-298.667c0-68.267 55.467-123.733 123.733-123.733h610.133c0 0 0 0 0 0 59.733 0 110.933 42.667 119.467 102.4l59.733 384c4.267 34.133-4.267 68.267-21.333 93.867zM268.8 59.733h-89.6c-29.867 0-51.2 21.333-51.2 46.933v298.667c0 25.6 21.333 46.933 46.933 46.933h89.6v-392.533zM836.267 98.133c-4.267-25.6-25.6-38.4-46.933-42.667h-448v422.4l157.867 349.867c38.4-4.267 68.267-38.4 68.267-81.067v-170.667c0-21.333 17.067-38.4 38.4-38.4h243.2c4.267 0 4.267 0 8.533 0 12.8 0 25.6-8.533 29.867-17.067 8.533-8.533 12.8-21.333 8.533-34.133l-59.733-388.267z" />
<glyph unicode="&#xe94c;" glyph-name="tool" d="M930.133 716.8c-4.267 12.8-17.067 17.067-25.6 21.333-12.8 4.267-25.6 0-34.133-8.533l-162.133-162.133c0 0-4.267 0-8.533 0l-68.267 68.267c0 0 0 4.267 0 8.533v0l162.133 162.133c8.533 8.533 12.8 21.333 8.533 34.133s-8.533 21.333-21.333 25.6c-76.8 34.133-166.4 34.133-243.2 0-136.533-64-204.8-221.867-153.6-366.933l-277.333-277.333c-25.6-25.6-38.4-55.467-38.4-89.6s12.8-68.267 38.4-89.6c25.6-25.6 59.733-38.4 89.6-38.4 34.133 0 64 12.8 89.6 38.4l277.333 277.333c72.533-25.6 149.333-21.333 217.6 8.533 72.533 34.133 128 89.6 153.6 162.133 29.867 76.8 25.6 157.867-4.267 226.133zM866.133 520.533c-21.333-55.467-59.733-98.133-115.2-123.733s-123.733-25.6-179.2 0c-12.8 8.533-29.867 4.267-42.667-8.533l-294.4-294.4c-21.333-21.333-55.467-21.333-76.8 0-8.533 8.533-17.067 21.333-17.067 38.4s4.267 25.6 17.067 38.4l294.4 294.4c12.8 12.8 12.8 25.6 8.533 42.667-46.933 110.933 0 238.933 110.933 290.133 29.867 12.8 59.733 21.333 89.6 21.333 12.8 0 25.6 0 34.133-4.267l-115.2-115.2c0 0 0 0 0 0-29.867-29.867-29.867-81.067 0-110.933l68.267-68.267c29.867-29.867 81.067-29.867 110.933 0l115.2 115.2c8.533-42.667 4.267-81.067-8.533-115.2z" />
<glyph unicode="&#xe94d;" glyph-name="trash" d="M896 742.4h-174.933v46.933c0 68.267-55.467 123.733-123.733 123.733h-170.667c-68.267 0-123.733-55.467-123.733-123.733v-46.933h-174.933c-21.333 0-38.4-17.067-38.4-38.4s17.067-38.4 38.4-38.4h46.933v-558.933c0-68.267 55.467-123.733 123.733-123.733h426.667c68.267 0 123.733 55.467 123.733 123.733v558.933h46.933c21.333 0 38.4 17.067 38.4 38.4s-17.067 38.4-38.4 38.4zM379.733 789.333c0 25.6 21.333 46.933 46.933 46.933h170.667c25.6 0 46.933-21.333 46.933-46.933v-46.933h-264.533v46.933zM772.267 106.667c0-25.6-21.333-46.933-46.933-46.933h-426.667c-25.6 0-46.933 21.333-46.933 46.933v558.933h524.8v-558.933zM426.667 529.067c-21.333 0-38.4-17.067-38.4-38.4v-256c0-21.333 17.067-38.4 38.4-38.4s38.4 17.067 38.4 38.4v256c0 21.333-17.067 38.4-38.4 38.4zM597.333 529.067c-21.333 0-38.4-17.067-38.4-38.4v-256c0-21.333 17.067-38.4 38.4-38.4s38.4 17.067 38.4 38.4v256c0 21.333-17.067 38.4-38.4 38.4z" />
<glyph unicode="&#xe94e;" glyph-name="unlock" d="M810.667 529.067h-473.6v132.267c0 46.933 17.067 89.6 51.2 123.733s76.8 51.2 123.733 51.2c0 0 0 0 0 0 85.333 0 157.867-59.733 170.667-140.8 4.267-21.333 25.6-34.133 42.667-29.867 21.333 4.267 34.133 25.6 29.867 42.667-25.6 115.2-128 200.533-247.467 200.533 0 0 0 0 0 0-68.267 0-128-25.6-179.2-72.533-42.667-46.933-68.267-106.667-68.267-174.933v-132.267h-46.933c-68.267 0-123.733-55.467-123.733-123.733v-298.667c0-68.267 55.467-123.733 123.733-123.733h597.333c68.267 0 123.733 55.467 123.733 123.733v298.667c0 68.267-55.467 123.733-123.733 123.733zM857.6 106.667c0-25.6-21.333-46.933-46.933-46.933h-597.333c-25.6 0-46.933 21.333-46.933 46.933v298.667c0 25.6 21.333 46.933 46.933 46.933h597.333c25.6 0 46.933-21.333 46.933-46.933v-298.667z" />
<glyph unicode="&#xe94f;" glyph-name="upload" d="M896 358.4c-21.333 0-38.4-17.067-38.4-38.4v-170.667c0-25.6-21.333-46.933-46.933-46.933h-597.333c-25.6 0-46.933 21.333-46.933 46.933v170.667c0 21.333-17.067 38.4-38.4 38.4s-38.4-17.067-38.4-38.4v-170.667c0-68.267 55.467-123.733 123.733-123.733h597.333c68.267 0 123.733 55.467 123.733 123.733v170.667c0 21.333-17.067 38.4-38.4 38.4zM324.267 593.067l149.333 149.333v-422.4c0-21.333 17.067-38.4 38.4-38.4s38.4 17.067 38.4 38.4v422.4l149.333-149.333c8.533-8.533 17.067-12.8 25.6-12.8s17.067 4.267 25.6 12.8c12.8 12.8 12.8 38.4 0 51.2l-213.333 213.333c-4.267 4.267-8.533 4.267-12.8 8.533-8.533 4.267-21.333 4.267-29.867 0-4.267 0-8.533-4.267-12.8-8.533l-213.333-213.333c-12.8-12.8-12.8-38.4 4.267-51.2s38.4-17.067 51.2 0z" />
<glyph unicode="&#xe950;" glyph-name="user" d="M846.421 311.467c-51.2 51.2-110.933 89.6-179.2 110.933 123.733 85.333 153.6 256 68.267 379.733s-256 153.6-379.733 68.267-153.6-256-68.267-379.733c17.067-25.6 42.667-51.2 68.267-68.267-174.933-59.733-298.667-217.6-315.733-405.333 0-21.333 12.8-38.4 34.133-38.4h4.267c17.067 0 34.133 12.8 38.4 34.133 17.067 217.6 213.333 379.733 430.933 362.667 192-17.067 345.6-170.667 362.667-362.667 0-17.067 17.067-34.133 38.4-34.133v0c21.333 0 38.4 17.067 38.4 38.4v4.267c-17.067 106.667-64 209.067-140.8 290.133zM513.621 448c-110.933 0-196.267 89.6-196.267 196.267 0 110.933 89.6 196.267 196.267 196.267 110.933 0 196.267-89.6 196.267-196.267s-89.6-196.267-196.267-196.267z" />
<glyph unicode="&#xe951;" glyph-name="facebook-sq" d="M881.778 960h-739.556c-79.644 0-142.222-62.578-142.222-142.222v-739.556c0-79.644 62.578-142.222 142.222-142.222h307.2v366.933h-93.867c-11.378 0-22.756 11.378-22.756 22.756v116.622c0 11.378 11.378 22.756 22.756 22.756h93.867v113.778c0 130.844 79.644 204.8 199.111 204.8h96.711c11.378 0 22.756-11.378 22.756-22.756v-99.556c0-11.378-11.378-22.756-22.756-22.756h-59.733c-65.422 0-76.8-31.289-76.8-73.956v-99.556h142.222c14.222 0 22.756-11.378 22.756-25.6l-14.222-116.622c0-11.378-11.378-19.911-22.756-19.911h-125.156v-366.933h270.222c79.644 0 142.222 62.578 142.222 142.222v739.556c0 79.644-62.578 142.222-142.222 142.222z" />
<glyph unicode="&#xe952;" glyph-name="wifi" d="M187.733 482.133c-17.067-17.067-17.067-38.4-4.267-55.467 8.533-8.533 17.067-12.8 29.867-12.8 8.533 0 17.067 4.267 25.6 8.533 162.133 132.267 392.533 132.267 554.667 0 17.067-12.8 38.4-12.8 51.2 4.267s12.8 38.4-4.267 51.2c-192 157.867-465.067 157.867-652.8 4.267zM989.867 631.467c-273.067 238.933-682.667 238.933-951.467 0-17.067-12.8-21.333-38.4-4.267-51.2 8.533-8.533 17.067-12.8 29.867-12.8 4.267 0 12.8 0 21.333 8.533 243.2 213.333 610.133 213.333 853.333 0 17.067-12.8 38.4-12.8 51.2 4.267 17.067 12.8 12.8 38.4 0 51.2zM341.333 328.533c-17.067-8.533-21.333-34.133-8.533-51.2s34.133-21.333 51.2-8.533c76.8 55.467 179.2 55.467 251.733 0 8.533-4.267 12.8-8.533 21.333-8.533 12.8 0 21.333 4.267 29.867 17.067 12.8 17.067 8.533 38.4-8.533 51.2-98.133 72.533-234.667 72.533-337.067 0zM512 183.467v0c-25.6 0-46.933-21.333-46.933-46.933s21.333-46.933 46.933-46.933 46.933 21.333 46.933 46.933-21.333 46.933-46.933 46.933z" />
<glyph unicode="&#xe953;" glyph-name="x" d="M563.2 448l230.4 230.4c12.8 12.8 12.8 38.4 0 51.2s-38.4 12.8-51.2 0l-230.4-230.4-230.4 230.4c-12.8 17.067-38.4 17.067-51.2 0s-17.067-38.4 0-51.2l230.4-230.4-230.4-230.4c-12.8-12.8-12.8-38.4 0-51.2 8.533-8.533 17.067-12.8 25.6-12.8s17.067 4.267 25.6 12.8l230.4 230.4 230.4-230.4c8.533-8.533 17.067-12.8 25.6-12.8s17.067 4.267 25.6 12.8c12.8 12.8 12.8 38.4 0 51.2l-230.4 230.4z" />
<glyph unicode="&#xe954;" glyph-name="zoom-in" d="M921.6 89.6l-162.133 162.133c55.467 64 85.333 149.333 85.333 238.933 0 209.067-170.667 379.733-379.733 379.733s-379.733-170.667-379.733-379.733 170.667-379.733 379.733-379.733c89.6 0 174.933 34.133 238.933 85.333l162.133-162.133c8.533-8.533 17.067-12.8 25.6-12.8s17.067 4.267 25.6 12.8c21.333 17.067 21.333 42.667 4.267 55.467zM166.4 490.667c0 166.4 136.533 302.933 302.933 302.933s302.933-136.533 302.933-302.933c0-85.333-34.133-157.867-89.6-213.333 0 0 0 0 0 0s0 0 0 0c-55.467-55.467-132.267-89.6-213.333-89.6-166.4 0-302.933 136.533-302.933 302.933zM597.333 529.067h-89.6v89.6c0 21.333-17.067 38.4-38.4 38.4s-38.4-17.067-38.4-38.4v-89.6h-89.6c-21.333 0-38.4-17.067-38.4-38.4s17.067-38.4 38.4-38.4h89.6v-89.6c0-21.333 17.067-38.4 38.4-38.4s38.4 17.067 38.4 38.4v89.6h89.6c21.333 0 38.4 17.067 38.4 38.4s-17.067 38.4-38.4 38.4z" />
<glyph unicode="&#xe955;" glyph-name="zoom-out" d="M921.6 89.6l-162.133 162.133c55.467 64 85.333 149.333 85.333 238.933 0 209.067-170.667 379.733-379.733 379.733s-379.733-170.667-379.733-379.733 170.667-379.733 379.733-379.733c89.6 0 174.933 34.133 238.933 85.333l162.133-162.133c8.533-8.533 17.067-12.8 25.6-12.8s17.067 4.267 25.6 12.8c21.333 17.067 21.333 42.667 4.267 55.467zM166.4 490.667c0 166.4 136.533 302.933 302.933 302.933s302.933-136.533 302.933-302.933c0-85.333-34.133-157.867-89.6-213.333 0 0 0 0 0 0s0 0 0 0c-55.467-55.467-132.267-89.6-213.333-89.6-166.4 0-302.933 136.533-302.933 302.933zM597.333 529.067h-256c-21.333 0-38.4-17.067-38.4-38.4s17.067-38.4 38.4-38.4h256c21.333 0 38.4 17.067 38.4 38.4s-17.067 38.4-38.4 38.4z" />
<glyph unicode="&#xe956;" glyph-name="yt-play" d="M981.188 799.892c-143.632 20.65-302.332 32.108-469.186 32.108-166.86 0-325.556-11.458-469.194-32.108-27.53-107.726-42.808-226.75-42.808-351.892 0-125.14 15.278-244.166 42.808-351.89 143.638-20.652 302.336-32.11 469.194-32.11 166.854 0 325.552 11.458 469.186 32.11 27.532 107.724 42.812 226.75 42.812 351.89 0 125.142-15.28 244.166-42.812 351.892zM384.002 256v384l320-192-320-192z" />
<glyph unicode="&#xe957;" glyph-name="flickr-sq" d="M881.778 960h-739.556c-79.644 0-142.222-62.578-142.222-142.222v-739.556c0-79.644 62.578-142.222 142.222-142.222h739.556c79.644 0 142.222 62.578 142.222 142.222v739.556c0 79.644-62.578 142.222-142.222 142.222zM352.711 337.067c-59.733 0-110.933 48.356-110.933 110.933 0 59.733 48.356 110.933 110.933 110.933s110.933-48.356 110.933-110.933c-2.844-59.733-51.2-110.933-110.933-110.933zM676.978 337.067c-59.733 0-110.933 48.356-110.933 110.933 0 59.733 48.356 110.933 110.933 110.933 59.733 0 110.933-48.356 110.933-110.933 0-59.733-51.2-110.933-110.933-110.933z" />
<glyph unicode="&#xe958;" glyph-name="mobile" d="M736 960h-448c-52.8 0-96-43.2-96-96v-832c0-52.8 43.2-96 96-96h448c52.8 0 96 43.2 96 96v832c0 52.8-43.2 96-96 96zM384 912h256v-32h-256v32zM512 0c-35.346 0-64 28.654-64 64s28.654 64 64 64 64-28.654 64-64-28.654-64-64-64zM768 192h-512v640h512v-640z" />
<glyph unicode="&#xe959;" glyph-name="instagram-sq" d="M881.778 960h-739.556c-79.644 0-142.222-62.578-142.222-142.222v-739.556c0-79.644 62.578-142.222 142.222-142.222h739.556c79.644 0 142.222 62.578 142.222 142.222v739.556c0 79.644-62.578 142.222-142.222 142.222zM699.733 800.711c0 25.6 19.911 45.511 45.511 45.511h116.622c25.6 0 45.511-19.911 45.511-45.511v-110.933c0-25.6-19.911-45.511-45.511-45.511h-116.622c-25.6 0-45.511 19.911-45.511 45.511v110.933zM512 649.956c113.778 0 204.8-88.178 204.8-199.111s-91.022-199.111-204.8-199.111c-113.778 0-204.8 88.178-204.8 199.111s91.022 199.111 204.8 199.111zM907.378 95.289c0-22.756-17.067-39.822-39.822-39.822h-713.956c-22.756 0-39.822 17.067-39.822 39.822v432.356h93.867c-8.533-28.444-14.222-56.889-14.222-88.178 0-170.667 142.222-307.2 318.578-307.2s318.578 139.378 318.578 307.2c0 31.289-5.689 59.733-14.222 88.178h91.022v-432.356z" />
<glyph unicode="&#xe95a;" glyph-name="linkedin-sq" d="M881.778 960h-739.556c-79.644 0-142.222-62.578-142.222-142.222v-739.556c0-79.644 62.578-142.222 142.222-142.222h739.556c79.644 0 142.222 62.578 142.222 142.222v739.556c0 79.644-62.578 142.222-142.222 142.222zM881.778 106.667c0-11.378-11.378-22.756-22.756-22.756h-110.933c-11.378 0-22.756 11.378-22.756 22.756v204.8c0 31.289 8.533 133.689-79.644 133.689-68.267 0-82.489-71.111-85.333-102.4v-236.089c0-11.378-11.378-22.756-22.756-22.756h-110.933c-11.378 0-22.756 11.378-22.756 22.756v443.733c0 11.378 11.378 22.756 22.756 22.756h108.089c11.378 0 22.756-11.378 22.756-22.756v-36.978c25.6 39.822 62.578 68.267 145.067 68.267 179.2 0 179.2-167.822 179.2-258.844v-216.178zM159.289 726.756c5.689 42.667 39.822 76.8 82.489 82.489 68.267 11.378 125.156-45.511 113.778-113.778-5.689-42.667-39.822-76.8-82.489-82.489-68.267-8.533-125.156 48.356-113.778 113.778zM179.2 547.556c0 14.222 11.378 25.6 25.6 25.6h105.244c14.222 0 25.6-11.378 25.6-25.6v-438.044c0-14.222-11.378-25.6-25.6-25.6h-105.244c-14.222 0-25.6 11.378-25.6 25.6v438.044z" />
<glyph unicode="&#xe95b;" glyph-name="play-round" d="M512 960c-281.6 0-512-230.4-512-512s230.4-512 512-512 512 230.4 512 512-230.4 512-512 512zM688.356 419.556l-256-159.289c-5.689-2.844-11.378-5.689-17.067-5.689s-11.378 0-14.222 2.844c-11.378 5.689-17.067 17.067-17.067 28.444v321.422c0 11.378 5.689 22.756 17.067 28.444s22.756 5.689 31.289 0l256-159.289c8.533-5.689 14.222-17.067 14.222-28.444 2.844-11.378-2.844-19.911-14.222-28.444z" />
<glyph unicode="&#xe95c;" glyph-name="twitter-sq" d="M881.778 960h-739.556c-79.644 0-142.222-62.578-142.222-142.222v-739.556c0-79.644 62.578-142.222 142.222-142.222h739.556c79.644 0 142.222 62.578 142.222 142.222v739.556c0 79.644-62.578 142.222-142.222 142.222zM804.978 587.378c-5.689-236.089-153.6-398.222-378.311-409.6-91.022-5.689-159.289 25.6-219.022 62.578 65.422-11.378 153.6 14.222 199.111 56.889-65.422 5.689-108.089 39.822-128 96.711 19.911-5.689 39.822 0 56.889 0-62.578 19.911-102.4 56.889-108.089 139.378 14.222-11.378 36.978-14.222 56.889-14.222-45.511 25.6-76.8 122.311-39.822 184.889 65.422-71.111 147.911-133.689 281.6-142.222-36.978 142.222 159.289 219.022 236.089 122.311 36.978 5.689 62.578 19.911 88.178 31.289-11.378-36.978-31.289-56.889-56.889-76.8 25.6 5.689 51.2 11.378 71.111 19.911-8.533-31.289-34.133-51.2-59.733-71.111z" />
<glyph unicode="&#xe95d;" glyph-name="youtube-play-sq" d="M881.778 960h-739.556c-79.644 0-142.222-62.578-142.222-142.222v-739.556c0-79.644 62.578-142.222 142.222-142.222h739.556c79.644 0 142.222 62.578 142.222 142.222v739.556c0 79.644-62.578 142.222-142.222 142.222zM731.022 337.067c-2.844-25.6-22.756-45.511-48.356-48.356-56.889-5.689-113.778-11.378-170.667-11.378s-113.778 2.844-170.667 11.378c-25.6 2.844-45.511 22.756-48.356 48.356-11.378 73.956-11.378 150.756 0 224.711 2.844 25.6 22.756 45.511 48.356 48.356 113.778 14.222 227.556 14.222 338.489 0 25.6-2.844 45.511-22.756 48.356-48.356 14.222-76.8 14.222-150.756 2.844-224.711zM455.111 351.289l153.6 96.711-153.6 96.711z" />
<glyph unicode="&#xe95e;" glyph-name="smartphone" d="M727.126 912.672h-434.555c-64.538 0-116.168-51.63-116.168-116.168v-697.008c0-64.538 51.63-116.168 116.168-116.168h434.555c64.538 0 116.168 51.63 116.168 116.168v697.008c4.303 64.538-51.63 116.168-116.168 116.168zM783.059 99.496c0-30.118-25.815-55.933-55.933-55.933h-434.555c-30.118 0-55.933 25.815-55.933 55.933v697.008c0 30.118 25.815 55.933 55.933 55.933h434.555c30.118 0 55.933-25.815 55.933-55.933v-697.008zM512 232.874v0c-25.815 0-47.328-21.513-47.328-47.328s21.513-47.328 47.328-47.328 47.328 21.513 47.328 47.328-21.513 47.328-47.328 47.328z" />
<glyph unicode="&#xe95f;" glyph-name="phone" d="M857.6-12.8c-4.267 0-8.533 0-12.8 0-136.533 17.067-273.067 64-388.267 136.533-106.667 68.267-200.533 162.133-268.8 268.8-76.8 115.2-123.733 251.733-136.533 388.267-4.267 29.867 8.533 59.733 25.6 85.333 21.333 25.6 46.933 38.4 81.067 42.667 4.267 0 8.533 0 8.533 0h128c0 0 0 0 0 0 55.467 0 106.667-42.667 115.2-102.4 4.267-38.4 12.8-76.8 29.867-115.2 17.067-42.667 4.267-89.6-25.6-123.733l-34.133-34.133c55.467-89.6 128-162.133 217.6-217.6l38.4 38.4c34.133 34.133 81.067 42.667 123.733 25.6 38.4-12.8 76.8-21.333 115.2-29.867 59.733-8.533 102.4-59.733 102.4-119.467v-128c-4.267-64-55.467-115.2-119.467-115.2zM298.667 849.067c0 0 0 0 0 0h-132.267c0 0-4.267 0-4.267 0-17.067 0-29.867-8.533-38.4-21.333-8.533-8.533-12.8-25.6-12.8-38.4 12.8-128 59.733-251.733 128-362.667 64-102.4 149.333-187.733 251.733-251.733 106.667-68.267 234.667-115.2 362.667-128 0 0 4.267 0 4.267 0 29.867 0 55.467 25.6 55.467 55.467v128c0 0 0 0 0 0 0 29.867-21.333 55.467-46.933 59.733-42.667 4.267-85.333 17.067-128 29.867-21.333 8.533-42.667 4.267-59.733-12.8l-55.467-55.467c-8.533-8.533-25.6-12.8-34.133-4.267-115.2 64-204.8 157.867-273.067 273.067-8.533 12.8-4.267 29.867 4.267 38.4l55.467 55.467c17.067 17.067 21.333 38.4 12.8 59.733-17.067 42.667-25.6 85.333-29.867 128-8.533 25.6-29.867 46.933-59.733 46.933z" />
<glyph unicode="&#xe98e;" glyph-name="key" d="M1002.132 645.758l-101.106 101.104c-24.792 24.794-65.37 65.368-90.162 90.164l-101.106 101.104c-24.792 24.794-68.954 29.166-98.13 9.716l-276.438-184.292c-29.176-19.452-40.218-61.028-24.536-92.39l70.486-140.974c2.154-4.306 4.646-8.896 7.39-13.66l-356.53-356.53-32-224h192v64h128v128h128v128h128v71.186c6.396-3.812 12.534-7.216 18.192-10.044l140.97-70.488c31.366-15.682 72.94-4.638 92.39 24.538l184.294 276.44c19.454 29.172 15.078 73.33-9.714 98.126zM150.628 105.374l-45.254 45.254 311.572 311.57 45.254-45.254-311.572-311.57zM917.020 536.236l-45.256-45.256c-12.446-12.444-32.808-12.444-45.254 0l-271.53 271.53c-12.446 12.444-12.446 32.81 0 45.254l45.256 45.256c12.446 12.444 32.808 12.444 45.254 0l271.53-271.53c12.446-12.444 12.446-32.81 0-45.254z" />
<glyph unicode="&#xea1c;" glyph-name="play" d="M192 832l640-384-640-384z" />
<glyph unicode="&#xea52;" glyph-name="checkbox-checked" d="M896 960h-768c-70.4 0-128-57.6-128-128v-768c0-70.4 57.6-128 128-128h768c70.4 0 128 57.6 128 128v768c0 70.4-57.6 128-128 128zM448 165.49l-237.254 237.256 90.51 90.508 146.744-146.744 306.746 306.746 90.508-90.51-397.254-397.256z" />
<glyph unicode="&#xea53;" glyph-name="checkbox-unchecked" d="M896 960h-768c-70.4 0-128-57.6-128-128v-768c0-70.4 57.6-128 128-128h768c70.4 0 128 57.6 128 128v768c0 70.4-57.6 128-128 128zM896 64h-768v768h768v-768z" />
<glyph unicode="&#xea55;" glyph-name="radio-checked" d="M512 960c-282.77 0-512-229.23-512-512s229.23-512 512-512 512 229.23 512 512-229.23 512-512 512zM512 320c-70.692 0-128 57.306-128 128 0 70.692 57.308 128 128 128 70.694 0 128-57.308 128-128 0-70.694-57.306-128-128-128z" />
<glyph unicode="&#xea56;" glyph-name="radio-unchecked" d="M512 960c-282.77 0-512-229.23-512-512s229.23-512 512-512 512 229.23 512 512-229.23 512-512 512zM512 64c-212.078 0-384 171.922-384 384s171.922 384 384 384c212.078 0 384-171.922 384-384s-171.922-384-384-384z" />
<glyph unicode="&#xea88;" glyph-name="google" d="M522.2 521.2v-175.6h290.4c-11.8-75.4-87.8-220.8-290.4-220.8-174.8 0-317.4 144.8-317.4 323.2s142.6 323.2 317.4 323.2c99.4 0 166-42.4 204-79l139 133.8c-89.2 83.6-204.8 134-343 134-283 0-512-229-512-512s229-512 512-512c295.4 0 491.6 207.8 491.6 500.2 0 33.6-3.6 59.2-8 84.8l-483.6 0.2z" />
<glyph unicode="&#xea89;" glyph-name="google2" d="M928 960h-832c-52.8 0-96-43.2-96-96v-832c0-52.8 43.2-96 96-96h832c52.8 0 96 43.2 96 96v832c0 52.8-43.2 96-96 96zM519.6 64c-212.2 0-384 171.8-384 384s171.8 384 384 384c103.6 0 190.4-37.8 257.2-100.4l-104.2-100.4c-28.6 27.4-78.4 59.2-153 59.2-131.2 0-238-108.6-238-242.4s107-242.4 238-242.4c152 0 209 109.2 217.8 165.6h-217.8v131.6h362.6c3.2-19.2 6-38.4 6-63.6 0.2-219.4-146.8-375.2-368.6-375.2z" />
<glyph unicode="&#xea8a;" glyph-name="google3" d="M512 960c-282.8 0-512-229.2-512-512s229.2-512 512-512 512 229.2 512 512-229.2 512-512 512zM519.6 64c-212.2 0-384 171.8-384 384s171.8 384 384 384c103.6 0 190.4-37.8 257.2-100.4l-104.2-100.4c-28.6 27.4-78.4 59.2-153 59.2-131.2 0-238-108.6-238-242.4s107-242.4 238-242.4c152 0 209 109.2 217.8 165.6h-217.8v131.6h362.6c3.2-19.2 6-38.4 6-63.6 0.2-219.4-146.8-375.2-368.6-375.2z" />
<glyph unicode="&#xea90;" glyph-name="facebook" d="M608 768h160v192h-160c-123.514 0-224-100.486-224-224v-96h-128v-192h128v-512h192v512h160l32 192h-192v96c0 17.346 14.654 32 32 32z" />
<glyph unicode="&#xea92;" glyph-name="instagram" d="M512 867.8c136.8 0 153-0.6 206.8-3 50-2.2 77-10.6 95-17.6 23.8-9.2 41-20.4 58.8-38.2 18-18 29-35 38.4-58.8 7-18 15.4-45.2 17.6-95 2.4-54 3-70.2 3-206.8s-0.6-153-3-206.8c-2.2-50-10.6-77-17.6-95-9.2-23.8-20.4-41-38.2-58.8-18-18-35-29-58.8-38.4-18-7-45.2-15.4-95-17.6-54-2.4-70.2-3-206.8-3s-153 0.6-206.8 3c-50 2.2-77 10.6-95 17.6-23.8 9.2-41 20.4-58.8 38.2-18 18-29 35-38.4 58.8-7 18-15.4 45.2-17.6 95-2.4 54-3 70.2-3 206.8s0.6 153 3 206.8c2.2 50 10.6 77 17.6 95 9.2 23.8 20.4 41 38.2 58.8 18 18 35 29 58.8 38.4 18 7 45.2 15.4 95 17.6 53.8 2.4 70 3 206.8 3zM512 960c-139 0-156.4-0.6-211-3-54.4-2.4-91.8-11.2-124.2-23.8-33.8-13.2-62.4-30.6-90.8-59.2-28.6-28.4-46-57-59.2-90.6-12.6-32.6-21.4-69.8-23.8-124.2-2.4-54.8-3-72.2-3-211.2s0.6-156.4 3-211c2.4-54.4 11.2-91.8 23.8-124.2 13.2-33.8 30.6-62.4 59.2-90.8 28.4-28.4 57-46 90.6-59 32.6-12.6 69.8-21.4 124.2-23.8 54.6-2.4 72-3 211-3s156.4 0.6 211 3c54.4 2.4 91.8 11.2 124.2 23.8 33.6 13 62.2 30.6 90.6 59s46 57 59 90.6c12.6 32.6 21.4 69.8 23.8 124.2 2.4 54.6 3 72 3 211s-0.6 156.4-3 211c-2.4 54.4-11.2 91.8-23.8 124.2-12.6 34-30 62.6-58.6 91-28.4 28.4-57 46-90.6 59-32.6 12.6-69.8 21.4-124.2 23.8-54.8 2.6-72.2 3.2-211.2 3.2v0zM512 711c-145.2 0-263-117.8-263-263s117.8-263 263-263 263 117.8 263 263c0 145.2-117.8 263-263 263zM512 277.4c-94.2 0-170.6 76.4-170.6 170.6s76.4 170.6 170.6 170.6c94.2 0 170.6-76.4 170.6-170.6s-76.4-170.6-170.6-170.6zM846.8 721.4c0-33.91-27.49-61.4-61.4-61.4s-61.4 27.49-61.4 61.4c0 33.91 27.49 61.4 61.4 61.4s61.4-27.49 61.4-61.4z" />
<glyph unicode="&#xea93;" glyph-name="whatsapp" d="M873 811.2c-95.8 96-223.2 148.8-359 148.8-279.6 0-507.2-227.6-507.2-507.4 0-89.4 23.4-176.8 67.8-253.6l-72-263 269 70.6c74.2-40.4 157.6-61.8 242.4-61.8h0.2c0 0 0 0 0 0 279.6 0 507.4 227.6 507.4 507.4 0 135.6-52.8 263-148.6 359zM514.2 30.4v0c-75.8 0-150 20.4-214.8 58.8l-15.4 9.2-159.6-41.8 42.6 155.6-10 16c-42.4 67-64.6 144.6-64.6 224.4 0 232.6 189.2 421.8 422 421.8 112.6 0 218.6-44 298.2-123.6 79.6-79.8 123.4-185.6 123.4-298.4-0.2-232.8-189.4-422-421.8-422zM745.4 346.4c-12.6 6.4-75 37-86.6 41.2s-20 6.4-28.6-6.4c-8.4-12.6-32.8-41.2-40.2-49.8-7.4-8.4-14.8-9.6-27.4-3.2s-53.6 19.8-102 63c-37.6 33.6-63.2 75.2-70.6 87.8s-0.8 19.6 5.6 25.8c5.8 5.6 12.6 14.8 19 22.2s8.4 12.6 12.6 21.2c4.2 8.4 2.2 15.8-1 22.2s-28.6 68.8-39 94.2c-10.2 24.8-20.8 21.4-28.6 21.8-7.4 0.4-15.8 0.4-24.2 0.4s-22.2-3.2-33.8-15.8c-11.6-12.6-44.4-43.4-44.4-105.8s45.4-122.6 51.8-131.2c6.4-8.4 89.4-136.6 216.6-191.4 30.2-13 53.8-20.8 72.2-26.8 30.4-9.6 58-8.2 79.8-5 24.4 3.6 75 30.6 85.6 60.2s10.6 55 7.4 60.2c-3 5.6-11.4 8.8-24.2 15.2z" />
<glyph unicode="&#xea96;" glyph-name="twitter" d="M1024 733.6c-37.6-16.8-78.2-28-120.6-33 43.4 26 76.6 67.2 92.4 116.2-40.6-24-85.6-41.6-133.4-51-38.4 40.8-93 66.2-153.4 66.2-116 0-210-94-210-210 0-16.4 1.8-32.4 5.4-47.8-174.6 8.8-329.4 92.4-433 219.6-18-31-28.4-67.2-28.4-105.6 0-72.8 37-137.2 93.4-174.8-34.4 1-66.8 10.6-95.2 26.2 0-0.8 0-1.8 0-2.6 0-101.8 72.4-186.8 168.6-206-17.6-4.8-36.2-7.4-55.4-7.4-13.6 0-26.6 1.4-39.6 3.8 26.8-83.4 104.4-144.2 196.2-146-72-56.4-162.4-90-261-90-17 0-33.6 1-50.2 3 93.2-59.8 203.6-94.4 322.2-94.4 386.4 0 597.8 320.2 597.8 597.8 0 9.2-0.2 18.2-0.6 27.2 41 29.4 76.6 66.4 104.8 108.6z" />
<glyph unicode="&#xea9d;" glyph-name="youtube" d="M1013.8 652.8c0 0-10 70.6-40.8 101.6-39 40.8-82.6 41-102.6 43.4-143.2 10.4-358.2 10.4-358.2 10.4h-0.4c0 0-215 0-358.2-10.4-20-2.4-63.6-2.6-102.6-43.4-30.8-31-40.6-101.6-40.6-101.6s-10.2-82.8-10.2-165.8v-77.6c0-82.8 10.2-165.8 10.2-165.8s10-70.6 40.6-101.6c39-40.8 90.2-39.4 113-43.8 82-7.8 348.2-10.2 348.2-10.2s215.2 0.4 358.4 10.6c20 2.4 63.6 2.6 102.6 43.4 30.8 31 40.8 101.6 40.8 101.6s10.2 82.8 10.2 165.8v77.6c-0.2 82.8-10.4 165.8-10.4 165.8zM406.2 315.2v287.8l276.6-144.4-276.6-143.4z" />
<glyph unicode="&#xeaa4;" glyph-name="flickr2" d="M800 544c-70.58 0-128-57.42-128-128s57.42-128 128-128c70.58 0 128 57.42 128 128s-57.42 128-128 128zM800 640v0c123.71 0 224-100.288 224-224 0-123.71-100.29-224-224-224s-224 100.29-224 224c0 123.712 100.29 224 224 224zM0 416c0 123.712 100.288 224 224 224s224-100.288 224-224c0-123.712-100.288-224-224-224s-224 100.288-224 224z" />
<glyph unicode="&#xeaa5;" glyph-name="flickr3" d="M928 960h-832c-52.8 0-96-43.2-96-96v-832c0-52.8 43.2-96 96-96h832c52.8 0 96 43.2 96 96v832c0 52.8-43.2 96-96 96zM288 288c-88.4 0-160 71.6-160 160s71.6 160 160 160 160-71.6 160-160-71.6-160-160-160zM736 288c-88.4 0-160 71.6-160 160s71.6 160 160 160c88.4 0 160-71.6 160-160s-71.6-160-160-160z" />
<glyph unicode="&#xeaa6;" glyph-name="flickr4" d="M512 960c-282.77 0-512-230.796-512-515.5s229.23-515.5 512-515.5 512 230.796 512 515.5-229.23 515.5-512 515.5zM288 288c-88.366 0-160 71.634-160 160s71.634 160 160 160 160-71.634 160-160c0-88.366-71.634-160-160-160zM736 288c-88.368 0-160 71.634-160 160s71.632 160 160 160 160-71.634 160-160c0-88.366-71.632-160-160-160z" />
<glyph unicode="&#xeab9;" glyph-name="tumblr" d="M576.032 512l-0.002-234.184c0-59.418-0.77-93.656 5.53-110.5 6.25-16.754 21.918-34.146 38.99-44.202 22.684-13.588 48.542-20.376 77.708-20.376 51.854 0 82.478 6.848 133.742 40.54v-153.944c-43.7-20.552-81.866-32.594-117.324-40.922-35.5-8.242-73.86-12.406-115.064-12.406-46.828 0-74.456 5.886-110.41 17.656-35.958 11.868-66.66 28.806-92.020 50.54-25.45 21.922-43.022 45.208-52.848 69.832-9.826 24.636-14.716 60.414-14.716 107.244v359.1h-137.426v145.006c40.208 13.042 85.164 31.788 113.78 56.152 28.754 24.45 51.766 53.706 69.106 87.944 17.392 34.146 29.348 77.712 35.872 130.516h165.084l-0.002-255.996h255.968v-192h-255.968z" />
<glyph unicode="&#xeaba;" glyph-name="tumblr2" d="M928 960h-832c-52.8 0-96-43.2-96-96v-832c0-52.8 43.2-96 96-96h832c52.8 0 96 43.2 96 96v832c0 52.8-43.2 96-96 96zM731.8 135.4c-30.2-14.2-57.6-24.2-82-30-24.4-5.6-51-8.6-79.4-8.6-32.4 0-51.4 4-76.2 12.2s-46 19.8-63.6 34.8c-17.6 15.2-29.6 31.2-36.4 48.2s-10.2 41.6-10.2 74v247.8h-96v100c27.8 9 60 22 79.6 38.8 19.8 16.8 35.8 37 47.6 60.6 12 23.6 20.2 53.6 24.8 90h100.4v-163.2h163.6v-126.2h-163.4v-181.2c0-41-0.6-64.6 3.8-76.2s15.2-23.6 27-30.4c15.6-9.4 33.6-14 53.6-14 35.8 0 71.4 11.6 106.8 34.8v-111.4z" />
<glyph unicode="&#xeac5;" glyph-name="skype" d="M425.6 922.6c-1.6 1-3.4 1.8-5 2.6-1.8-0.4-3.4-0.6-5.2-1l10.2-1.6zM36.8 539c-0.4-1.8-0.6-3.6-0.8-5.2 1-1.6 1.6-3.2 2.6-4.8l-1.8 10zM986.8 357.4c0.4 1.8 0.6 3.6 1 5.4-1 1.6-1.6 3.2-2.6 4.8l1.6-10.2zM592-23c1.6-1 3.4-1.8 5-2.6 1.8 0.4 3.6 0.6 5.4 0.8l-10.4 1.8zM987.8 362.8c-0.4-1.8-0.6-3.6-1-5.4l-1.8 10.4c1-1.8 1.8-3.4 2.8-5 5.2 28.8 8 58.2 8 87.6 0 65.2-12.8 128.6-38 188.2-24.4 57.6-59.2 109.4-103.6 153.8s-96.2 79.2-153.6 103.6c-59.6 25.2-123 38-188.2 38-30.8 0-61.6-2.8-91.6-8.6 0 0-0.2 0-0.2 0 1.6-0.8 3.4-1.6 5-2.6l-10.2 1.6c1.8 0.4 3.4 0.6 5.2 1-41.2 21.8-87.4 33.6-134.2 33.6-76.4 0-148.4-29.8-202.4-83.8s-83.8-126-83.8-202.4c0-48.6 12.6-96.6 36-138.8 0.4 1.8 0.6 3.6 0.8 5.2l1.8-10.2c-1 1.6-1.8 3.2-2.6 4.8-4.8-27.4-7.2-55.4-7.2-83.4 0-65.2 12.8-128.6 38-188.2 24.4-57.6 59.2-109.2 103.6-153.6s96.2-79.2 153.8-103.6c59.6-25.2 123-38 188.2-38 28.4 0 56.8 2.6 84.6 7.6-1.6 1-3.2 1.8-5 2.6l10.4-1.8c-1.8-0.4-3.6-0.6-5.4-0.8 42.8-24.2 91.4-37.2 140.8-37.2 76.4 0 148.4 29.8 202.4 83.8s83.8 126 83.8 202.4c-0.2 48.6-12.8 96.6-36.4 139.2zM514.2 154.2c-171.8 0-248.6 84.4-248.6 147.8 0 32.4 24 55.2 57 55.2 73.6 0 54.4-105.6 191.6-105.6 70.2 0 109 38.2 109 77.2 0 23.4-11.6 49.4-57.8 60.8l-152.8 38.2c-123 30.8-145.4 97.4-145.4 160 0 129.8 122.2 178.6 237 178.6 105.8 0 230.4-58.4 230.4-136.4 0-33.4-29-52.8-62-52.8-62.8 0-51.2 86.8-177.6 86.8-62.8 0-97.4-28.4-97.4-69s49.6-53.6 92.6-63.4l113.2-25.2c123.8-27.6 155.2-100 155.2-168 0-105.4-81-184.2-244.4-184.2z" />
<glyph unicode="&#xeaca;" glyph-name="linkedin2" d="M384 576h177.106v-90.782h2.532c24.64 44.194 84.958 90.782 174.842 90.782 186.946 0 221.52-116.376 221.52-267.734v-308.266h-184.61v273.278c0 65.184-1.334 149.026-96.028 149.026-96.148 0-110.82-70.986-110.82-144.292v-278.012h-184.542v576zM64 576h192v-576h-192v576zM256 736c0-53.019-42.981-96-96-96s-96 42.981-96 96c0 53.019 42.981 96 96 96s96-42.981 96-96z" />
<glyph unicode="&#xead1;" glyph-name="pinterest" d="M512 891.6c-245 0-443.6-198.6-443.6-443.6 0-188 117-348.4 282-413-3.8 35-7.4 89 1.6 127.2 8 34.6 52 220.4 52 220.4s-13.2 26.6-13.2 65.8c0 61.6 35.8 107.8 80.2 107.8 37.8 0 56.2-28.4 56.2-62.4 0-38-24.2-95-36.8-147.6-10.6-44.2 22-80.2 65.6-80.2 78.8 0 139.4 83.2 139.4 203.2 0 106.2-76.4 180.4-185.2 180.4-126.2 0-200.2-94.6-200.2-192.6 0-38.2 14.6-79 33-101.2 3.6-4.4 4.2-8.2 3-12.8-3.4-14-10.8-44.2-12.4-50.4-2-8.2-6.4-9.8-14.8-6-55.4 25.8-90 106.8-90 171.8 0 140 101.6 268.4 293 268.4 153.8 0 273.4-109.6 273.4-256.2 0-152.8-96.4-276-230.2-276-45 0-87.2 23.4-101.6 51 0 0-22.2-84.6-27.6-105.4-10-38.6-37-86.8-55.2-116.2 41.6-12.8 85.6-19.8 131.4-19.8 245 0 443.6 198.6 443.6 443.6 0 245.2-198.6 443.8-443.6 443.8z" />
<glyph unicode="&#xead6;" glyph-name="foursquare" d="M851.564 869.91c-12.060 16.404-31.204 26.090-51.564 26.090h-608c-35.346 0-64-28.654-64-64v-768c0-25.884 15.592-49.222 39.508-59.128 7.918-3.28 16.234-4.874 24.478-4.874 16.656 0 33.026 6.504 45.268 18.748l237.256 237.254h165.49c27.992 0 52.736 18.192 61.086 44.91l160 512c6.074 19.432 2.538 40.596-9.522 57zM672.948 640h-224.948c-35.346 0-64-28.654-64-64s28.654-64 64-64h184.948l-40-128h-144.948c-16.974 0-33.252-6.742-45.254-18.746l-146.746-146.744v549.49h456.948l-40-128z" />
<glyph unicode="&#xead7;" glyph-name="yelp" d="M608.876 306.532c-17.282-17.426-2.668-49.128-2.668-49.128l130.090-217.218c0 0 21.36-28.64 39.864-28.64 18.59 0 36.954 15.27 36.954 15.27l102.844 147.008c0 0 10.36 18.546 10.598 34.792 0.372 23.106-34.454 29.434-34.454 29.434l-243.488 78.192c-0.002-0.004-23.858 6.328-39.74-9.71zM596.532 416.016c12.46-21.128 46.828-14.972 46.828-14.972l242.938 71.006c0 0 33.106 13.466 37.832 31.418 4.64 17.954-5.46 39.622-5.46 39.622l-116.098 136.752c0 0-10.062 17.292-30.938 19.032-23.016 1.958-37.18-25.898-37.18-25.898l-137.27-216.010c0-0.004-12.134-21.516-0.652-40.95zM481.754 500.232c28.608 7.044 33.148 48.604 33.148 48.604l-1.944 345.87c0 0-4.314 42.666-23.486 54.232-30.070 18.242-38.982 8.718-47.596 7.444l-201.696-74.944c0 0-19.754-6.536-30.042-23.018-14.69-23.352 14.928-57.544 14.928-57.544l209.644-285.756c0 0 20.69-21.396 47.044-14.888zM431.944 360.262c0.722 26.676-32.030 42.7-32.030 42.7l-216.796 109.524c0 0-32.126 13.246-47.722 4.016-11.95-7.060-22.536-19.84-23.572-31.134l-14.12-173.812c0 0-2.116-30.114 5.69-43.82 11.054-19.442 47.428-5.902 47.428-5.902l253.096 55.942c9.832 6.61 27.074 7.204 28.026 42.486zM494.88 266.458c-21.726 11.156-47.724-11.95-47.724-11.95l-169.468-186.566c0 0-21.144-28.528-15.768-46.050 5.066-16.418 13.454-24.578 25.318-30.328l170.192-53.726c0 0 20.634-4.286 36.258 0.242 22.18 6.43 18.094 41.152 18.094 41.152l3.848 252.602c-0.002-0.002-0.868 24.334-20.75 34.624z" />
<glyph unicode="&#xead8;" glyph-name="paypal" d="M930 651.4c-47.8-212.2-195.4-324.2-428-324.2h-77.4l-53.8-341.6h-64.8l-3.4-22c-2.2-14.6 9-27.6 23.6-27.6h165.6c19.6 0 36.2 14.2 39.4 33.6l1.6 8.4 31.2 197.8 2 10.8c3 19.4 19.8 33.6 39.4 33.6h24.6c160.4 0 286 65.2 322.8 253.6 13.8 71.6 8.6 132.4-22.8 177.6zM831 882.8c-47.4 54-133.2 77.2-242.8 77.2h-318.2c-22.4 0-41.6-16.2-45-38.4l-132.6-840.4c-2.6-16.6 10.2-31.6 27-31.6h196.6l49.4 313-1.6-9.8c3.4 22.2 22.4 38.4 44.8 38.4h93.4c183.4 0 327 74.4 369 290 1.2 6.4 2.4 12.6 3.2 18.6 12.4 79.6 0 134-43.2 183z" />
<glyph unicode="&#xeadf;" glyph-name="file-pdf" d="M842.012 370.52c-13.648 13.446-43.914 20.566-89.972 21.172-31.178 0.344-68.702-2.402-108.17-7.928-17.674 10.198-35.892 21.294-50.188 34.658-38.462 35.916-70.568 85.772-90.576 140.594 1.304 5.12 2.414 9.62 3.448 14.212 0 0 21.666 123.060 15.932 164.666-0.792 5.706-1.276 7.362-2.808 11.796l-1.882 4.834c-5.894 13.592-17.448 27.994-35.564 27.208l-10.916 0.344c-20.202 0-36.664-10.332-40.986-25.774-13.138-48.434 0.418-120.892 24.98-214.738l-6.288-15.286c-17.588-42.876-39.63-86.060-59.078-124.158l-2.528-4.954c-20.46-40.040-39.026-74.028-55.856-102.822l-17.376-9.188c-1.264-0.668-31.044-16.418-38.028-20.644-59.256-35.38-98.524-75.542-105.038-107.416-2.072-10.17-0.53-23.186 10.014-29.212l16.806-8.458c7.292-3.652 14.978-5.502 22.854-5.502 42.206 0 91.202 52.572 158.698 170.366 77.93 25.37 166.652 46.458 244.412 58.090 59.258-33.368 132.142-56.544 178.142-56.544 8.168 0 15.212 0.78 20.932 2.294 8.822 2.336 16.258 7.368 20.792 14.194 8.926 13.432 10.734 31.932 8.312 50.876-0.72 5.622-5.21 12.574-10.068 17.32zM211.646 145.952c7.698 21.042 38.16 62.644 83.206 99.556 2.832 2.296 9.808 8.832 16.194 14.902-47.104-75.124-78.648-105.066-99.4-114.458zM478.434 760.314c13.566 0 21.284-34.194 21.924-66.254s-6.858-54.56-16.158-71.208c-7.702 24.648-11.426 63.5-11.426 88.904 0 0-0.566 48.558 5.66 48.558v0zM398.852 322.506c9.45 16.916 19.282 34.756 29.33 53.678 24.492 46.316 39.958 82.556 51.478 112.346 22.91-41.684 51.444-77.12 84.984-105.512 4.186-3.542 8.62-7.102 13.276-10.65-68.21-13.496-127.164-29.91-179.068-49.862v0zM828.902 326.348c-4.152-2.598-16.052-4.1-23.708-4.1-24.708 0-55.272 11.294-98.126 29.666 16.468 1.218 31.562 1.838 45.102 1.838 24.782 0 32.12 0.108 56.35-6.072 24.228-6.18 24.538-18.734 20.382-21.332v0zM917.806 730.924c-22.21 30.292-53.174 65.7-87.178 99.704s-69.412 64.964-99.704 87.178c-51.574 37.82-76.592 42.194-90.924 42.194h-496c-44.112 0-80-35.888-80-80v-864c0-44.112 35.886-80 80-80h736c44.112 0 80 35.888 80 80v624c0 14.332-4.372 39.35-42.194 90.924v0zM785.374 785.374c30.7-30.7 54.8-58.398 72.58-81.374h-153.954v153.946c22.982-17.78 50.678-41.878 81.374-72.572v0zM896 16c0-8.672-7.328-16-16-16h-736c-8.672 0-16 7.328-16 16v864c0 8.672 7.328 16 16 16 0 0 495.956 0.002 496 0v-224c0-17.672 14.324-32 32-32h224v-624z" />
</font>
</defs>
</svg>
